Зарубежные фильмы Исторический

Человек-паук: Возвращение домой / Spider-Man: Homecoming (2017) HDRip от ExKinoRay | Лицензия


Информация о фильме
Название: Человек-паук: Возвращение домой
Оригинальное название: Spider-Man: Homecoming
Год выхода: 2017
Жанр: Фантастика, боевик, приключения
Режиссер: Джон Уоттс
В ролях: Том Холланд (II), Роберт Дауни мл., Майкл Китон, Мариса Томей, Джон Фавро, Джейкоб Баталон, Зендея, Лора Хэрриер, Тони Револори, Дональд Гловер

О фильме:
После исторической встречи с командой Мстителей Питер Паркер возвращается домой, стараясь зажить обычной жизнью под опекой своей тёти Мэй. Но теперь за Питером приглядывает ещё кое-что… Тони Старк видел Человека-Паука в деле и должен стать его наставником. Когда новый злодей Стервятник угрожает уничтожить всё, что дорого Питеру, приходит время доказать всем, что такое настоящий супергерой.

Семпл

Страна: США, Columbia Pictures, Marvel Studios Inc., Pascal Pictures
Продолжительность: 02:13:28
Перевод: Дублированный | Лицензия

Файл
Кодек: XviD
Качество: HDRip Источник
Видео: 576×240 (2.40:1), 23.976 fps, 704 kbps avg, 0.21 bit/pixel
Звук: 48 kHz, MP3, 2 ch, ~128.00 kbps avg
Субтитры: Русские (forced)

MI
General
Complete name : D:Изготовление рипаSpider.Man.Homecoming.2017 (Лицензия).HDRip.ExKinoRay.avi
Format : AVI
Format/Info : Audio Video Interleave
File size : 803 MiB
Duration : 2 h 13 min
Overall bit rate : 842 kb/s
Writing application : VirtualDubMod 1.5.10.3 | www.virtualdub-fr.org || (build 2550/release)
Writing library : VirtualDubMod build 2550/release

Video
ID : 0
Format : MPEG-4 Visual
Format profile : Advanced [email protected]
Format settings : BVOP1 / Custom Matrix
Format settings, BVOP : 1
Format settings, QPel : No
Format settings, GMC : No warppoints
Format settings, Matrix : Custom
Codec ID : XVID
Codec ID/Hint : XviD
Duration : 2 h 13 min
Bit rate : 704 kb/s
Width : 576 pixels
Height : 240 pixels
Display aspect ratio : 2.40:1
Frame rate : 23.976 (24000/1001) FPS
Color space : YUV
Chroma subsampling : 4:2:0
Bit depth : 8 bits
Scan type : Progressive
Compression mode : Lossy
Bits/(Pixel*Frame) : 0.212
Stream size : 672 MiB (84%)
Writing library : XviD 73

Audio
ID : 1
Format : MPEG Audio
Format version : Version 1
Format profile : Layer 3
Codec ID : 55
Codec ID/Hint : MP3
Duration : 2 h 13 min
Bit rate mode : Constant
Bit rate : 128 kb/s
Channel(s) : 2 channels
Sampling rate : 48.0 kHz
Compression mode : Lossy
Stream size : 122 MiB (15%)
Alignment : Aligned on interleaves
Interleave, duration : 42 ms (1.00 video frame)
Interleave, preload duratio : 504 ms
Writing library : LAME3.99r
Encoding settings : -m s -V 4 -q 2 -lowpass 17 -b 128
Скриншоты

Релиз от:


Скачать Spider.Man.Homecoming.2017_Licenzija.HDRip.ExKi.torrent

просмотры: 1

Post Comment