Мультипликация

Чудо-Юдо (2017) WEB-DLRip-AVC от ExKinoRay | iTunes

Информация о фильме
Название: Чудо-Юдо
Год выхода: 2017
Жанр: мультфильм, фэнтези
Режиссер: Артем Лукичев
В ролях: Антон Макарский, Ирина Медведева, Наталия Медведева, Александр Пожаров, Людмила Артемьева, Федор Добронравов, Иван Добронравов, Диомид Виноградов

Описание:
В некотором царстве, в некотором государстве жил-был Царь Еремей с тремя сыновьями. Был он занят целыми днями важнейшим государственным делом — диктовал мемуары о своих несуществующих подвигах. И вот однажды, средь бела дня обнаружилось на границе Царства чудище драконьей породы, а проще говоря, Чудо-Юдо. И послал Царь сыновей чудище это победить и славу царского рода приумножить. Но пока старшие сыновья спали, а Иван с Чудом-Юдом сражался, выяснилось, что пропала Царевна Варвара из Соседнего Царства. И отправился Иван на её поиски. Ну и Чудо-Юдо с собой прихватил. На всякий случай. Вдруг в дороге пригодится! Не знал только Иван, что Дракон этот — совсем не тот, за кого себя выдаёт.

Страна: Россия
Продолжительность: 01:14:55

Файл
Формат: MKV
Качество: WEB-DLRip-AVC
Видео: MPEG-4 AVC, 1024×554 (2.40:1), 24.000 fps, ~1830 kbps avg, 0.134 bit/pixel
Звук: AC3, 48.0 KHz, 5.1 ch, 384 kbps

MI
General
Unique ID : 192654560545121992039267528851728944525 (0x90EFEB306CE05DDD8489D622EBB4CD8D)
Complete name : D:Chudo-Judo.2017.AVC.ExKinoRay.mkv
Format : Matroska
Format version : Version 2
File size : 1.16 GiB
Duration : 1 h 14 min
Overall bit rate : 2 216 kb/s
Movie name : Chudo-Judo 2017 from ExKinoray
Encoded date : UTC 2018-01-25 03:01:13
Writing application : mkvmerge v5.6.0 ('Kenya Kane') built on May 27 2012 16:44:04
Writing library : libebml v1.2.3 + libmatroska v1.3.0

Video
ID : 1
Format : AVC
Format/Info : Advanced Video Codec
Format profile : [email protected]
Format settings, CABAC : Yes
Format settings, ReFrames : 10 frames
Codec ID : V_MPEG4/ISO/AVC
Duration : 1 h 14 min
Bit rate : 1 830 kb/s
Width : 1 024 pixels
Height : 554 pixels
Display aspect ratio : 1.85:1
Frame rate mode : Constant
Frame rate : 24.000 FPS
Color space : YUV
Chroma subsampling : 4:2:0
Bit depth : 8 bits
Scan type : Progressive
Bits/(Pixel*Frame) : 0.134
Stream size : 958 MiB (81%)
Title : Enigma
Writing library : x264 core 152 r2851 ba24899
Encoding settings : cabac=1 / ref=10 / deblock=1:-2:-2 / analyse=0x3:0x113 / me=umh / subme=10 / psy=1 / psy_rd=1.05:0.10 / mixed_ref=1 / me_range=32 / chroma_me=1 / trellis=2 / 8x8dct=1 / cqm=0 / deadzone=21,11 / fast_pskip=0 / chroma_qp_offset=-3 / threads=12 / lookahead_threads=2 / sliced_threads=0 / nr=0 / decimate=0 / interlaced=0 / bluray_compat=0 / constrained_intra=0 / bframes=9 / b_pyramid=2 / b_adapt=2 / b_bias=0 / direct=3 / weightb=1 / open_gop=0 / weightp=2 / keyint=240 / keyint_min=24 / scenecut=40 / intra_refresh=0 / rc_lookahead=40 / rc=2pass / mbtree=0 / bitrate=1830 / ratetol=1.0 / qcomp=0.60 / qpmin=0 / qpmax=51 / qpstep=4 / cplxblur=20.0 / qblur=0.5 / vbv_maxrate=50000 / vbv_bufsize=62500 / nal_hrd=none / filler=0 / ip_ratio=1.40 / pb_ratio=1.30 / aq=1:1.00
Language : English
Default : Yes
Forced : No
Color range : Limited
Color primaries : BT.709
Transfer characteristics : BT.709
Matrix coefficients : BT.709

Audio
ID : 2
Format : AC-3
Format/Info : Audio Coding 3
Mode extension : CM (complete main)
Format settings, Endianness : Big
Codec ID : A_AC3
Duration : 1 h 14 min
Bit rate mode : Constant
Bit rate : 384 kb/s
Channel(s) : 6 channels
Channel positions : Front: L C R, Side: L R, LFE
Sampling rate : 48.0 kHz
Frame rate : 31.250 FPS (1536 spf)
Compression mode : Lossy
Stream size : 206 MiB (17%)
Language : Russian
Default : Yes
Forced : No

Menu
00:00:00.000 : en:Глава 1
00:05:37.208 : en:Глава 2
00:12:26.583 : en:Глава 3
00:19:25.916 : en:Глава 4
00:27:07.041 : en:Глава 5
00:34:03.624 : en:Глава 6
00:42:04.499 : en:Глава 7
00:48:31.832 : en:Глава 8
00:54:11.332 : en:Глава 9
01:01:35.957 : en:Глава 10

Релиз от:

Автор релиза:


Скачать Chudo-Judo.2017.AVC.ExKinoRay.torrent

просмотры: 1

Post Comment