Военный Зарубежные фильмы

55 дней в Пекине / 55 Days at Peking (1963) BDRip AVC от MediaClub | P

Информация о фильме
Название: 55 дней в Пекине
Оригинальное название: 55 Days at Peking
Год выхода: 1963
Жанр: Боевик, драма, военный, история
Режиссер: Николас Рэй, Гай Грин
В ролях: Чарлтон Хестон, Ава Гарднер, Дэвид Найвен, Флора Робсон, Джон Айрленд, Гарри Эндрюс, Лео Генн, Роберт Хелпманн, Курт Казнар, Филипп Леруа, Пол Лукас, Элизабет Селларс, Массимо Серато

О фильме:
История о мужестве и борьбе за жизнь военных и дипломатов, в 1900 г. попавших в западню в закрытой зоне Пекина. С молчаливой поддержки императрицы Китая, их осадили тысячи восставших против иностранцев китайских фанатиков.Разногласия забыты перед лицом опасности, забыта и борьба за сердце прекрасной, русской графини. Все вовлечены в ужасные события…

Страна: США
Студия: Samuel Bronston Productions
Продолжительность: 02:42:01
Перевод: Профессиональный многоголосый закадровый

Файл
Кодек: h.264
Качество: BDRip AVC
Видео: MPEG-4 AVC, 3371 Кбит/с, 1024×464, 24,000 кадр/с
Звук:
Русский (AC3, 2 ch, 224 Кбит/с) / Профессиональный многоголосый
Английский (AC3, 6 ch, 384 Кбит/с)
Субтитры: Английские

Семпл

MI
General
Unique ID : 183784843911906080991617541493926595265 (0x8A43AC6559150D12AF96112C33AB0AC1)
Complete name : D:uTorrent55.dney.v.Pekine.1963.BDRip.AVC.MediaClub.mkv
Format : Matroska
Format version : Version 4 / Version 2
File size : 4.50 GiB
Duration : 2 h 42 min
Overall bit rate : 3 980 kb/s
Movie name : 55 days at Peking (1963)
Encoded date : UTC 2018-01-05 22:57:08 / UTC 2017-10-26T13:48:31Z
Writing application : mkvmerge v17.0.0 ('Be Ur Friend') 64-bit
Writing library : libebml v1.3.5 + libmatroska v1.4.8 / Lavf57.7.2

Video
ID : 1
Format : AVC
Format/Info : Advanced Video Codec
Format profile : [email protected]
Format settings : CABAC / 14 Ref Frames
Format settings, CABAC : Yes
Format settings, RefFrames : 14 frames
Codec ID : V_MPEG4/ISO/AVC
Duration : 2 h 42 min
Bit rate : 3 371 kb/s
Width : 1 024 pixels
Height : 464 pixels
Display aspect ratio : 2.2:1
Frame rate mode : Constant
Frame rate : 24.000 FPS
Color space : YUV
Chroma subsampling : 4:2:0
Bit depth : 8 bits
Scan type : Progressive
Bits/(Pixel*Frame) : 0.296
Stream size : 3.73 GiB (83%)
Title : BDRip by Silverok
Writing library : x264 core 148 r2708 86b7198
Encoding settings : cabac=1 / ref=14 / deblock=1:-3:-3 / analyse=0x3:0x113 / me=umh / subme=11 / psy=1 / psy_rd=1.00:0.00 / mixed_ref=1 / me_range=32 / chroma_me=1 / trellis=2 / 8x8dct=1 / cqm=0 / deadzone=21,11 / fast_pskip=1 / chroma_qp_offset=-2 / threads=12 / lookahead_threads=1 / sliced_threads=0 / nr=0 / decimate=0 / interlaced=0 / bluray_compat=0 / constrained_intra=0 / bframes=12 / b_pyramid=2 / b_adapt=1 / b_bias=0 / direct=1 / weightb=1 / open_gop=0 / weightp=2 / keyint=240 / keyint_min=24 / scenecut=40 / intra_refresh=0 / rc_lookahead=40 / rc=2pass / mbtree=1 / bitrate=3371 / ratetol=1.0 / qcomp=0.60 / qpmin=0 / qpmax=69 / qpstep=4 / cplxblur=20.0 / qblur=0.5 / vbv_maxrate=62500 / vbv_bufsize=78125 / nal_hrd=none / filler=0 / ip_ratio=1.40 / aq=1:1.00
Default : Yes
Forced : No
Color range : Limited
Color primaries : BT.709
Transfer characteristics : BT.709
Matrix coefficients : BT.709
Statistics Tags Issue : mkvmerge v17.0.0 ('Be Ur Friend') 64-bit 2018-01-05 22:57:08 / mkvmerge v17.0.0 ('Be Ur Friend') 64-bit 2018-01-05 22:57:08 / UTC 2017-10-26T13:48:31Z
FromStats_BitRate : 3370279
FromStats_Duration : 02:42:01.792000000
FromStats_FrameCount : 233323
FromStats_StreamSize : 4095644858

Audio #1
ID : 2
Format : AC-3
Format/Info : Audio Coding 3
Codec ID : A_AC3
Duration : 2 h 42 min
Bit rate mode : Constant
Bit rate : 224 kb/s
Channel(s) : 2 channels
Channel positions : Front: L R
Sampling rate : 48.0 kHz
Frame rate : 31.250 FPS (1536 SPF)
Bit depth : 16 bits
Compression mode : Lossy
Stream size : 260 MiB (6%)
Title : Профессиональный многоголосый закадровый
Language : Russian
Service kind : Complete Main
Default : Yes
Forced : No
Statistics Tags Issue : mkvmerge v17.0.0 ('Be Ur Friend') 64-bit 2018-01-05 22:57:08 / mkvmerge v17.0.0 ('Be Ur Friend') 64-bit 2018-01-05 22:57:08 / UTC 2017-10-26T13:48:31Z
FromStats_BitRate : 224000
FromStats_Duration : 02:42:01.760000000
FromStats_FrameCount : 303805
FromStats_StreamSize : 272209280

Audio #2
ID : 3
Format : AC-3
Format/Info : Audio Coding 3
Codec ID : A_AC3
Duration : 2 h 42 min
Bit rate mode : Constant
Bit rate : 384 kb/s
Channel(s) : 6 channels
Channel positions : Front: L C R, Side: L R, LFE
Sampling rate : 48.0 kHz
Frame rate : 31.250 FPS (1536 SPF)
Bit depth : 16 bits
Compression mode : Lossy
Delay relative to video : -5 ms
Stream size : 445 MiB (10%)
Language : English
Service kind : Complete Main
Default : No
Forced : No
Statistics Tags Issue : mkvmerge v17.0.0 ('Be Ur Friend') 64-bit 2018-01-05 22:57:08 / mkvmerge v17.0.0 ('Be Ur Friend') 64-bit 2018-01-05 22:57:08 / UTC 2017-10-26T13:48:31Z
FromStats_BitRate : 384000
FromStats_Duration : 02:42:01.760000000
FromStats_FrameCount : 303805
FromStats_StreamSize : 466644480

Text
ID : 4
Format : ASS
Codec ID : S_TEXT/ASS
Codec ID/Info : Advanced Sub Station Alpha
Compression mode : Lossless
Language : English
Default : No
Forced : No
Statistics Tags Issue : mkvmerge v17.0.0 ('Be Ur Friend') 64-bit 2018-01-05 22:57:08 / mkvmerge v17.0.0 ('Be Ur Friend') 64-bit 2018-01-05 22:57:08 / UTC 2017-10-26T13:48:31Z
FromStats_BitRate : 74
FromStats_Duration : 02:31:57.154000000
FromStats_FrameCount : 1424
FromStats_StreamSize : 84877

Menu
00:00:00.000 : :Chapter 1
00:13:55.083 : :Chapter 2
00:28:07.917 : :Chapter 3
00:35:14.333 : :Chapter 4
00:50:36.458 : :Chapter 5
01:05:11.125 : :Chapter 6
01:17:36.375 : :Chapter 7
01:30:33.417 : :Chapter 8
01:45:17.833 : :Chapter 9
02:01:26.250 : :Chapter 10
02:11:44.917 : :Chapter 11
02:27:14.208 : :Chapter 12

Скриншоты

Релиз от: | Silverok


Скачать 55.dney.v.Pekine.1963.BDRip.AVC.MediaClub.mkv.torrent

просмотры: 2

Post Comment