Зарубежные фильмы Комедия

Женщина в красном / The Woman in Red (1984) BDRemux 1080р | P, A

Информация о фильме
Название: Женщина в красном
Оригинальное название: The Woman in Red
Год выхода: 1984
Жанр: комедия, мелодрама
Режиссер: Джин Уайлдер
В ролях: Джин Уайлдер, Чарльз Гродин, Джозеф Болонья, Джудит Айви, Майкл Хаддлстон, Келли ЛеБрок, Гилда Рэднер, Кайл Т. Хеффнер, Майкл Зорек, Билли Бек, Кира Стемпел, Робин Игнико, Виола Кейтс Стимпсон, Дэнни Уэллс, Бадди Силберман, Моника Паркер

О фильме: Однажды Тедди оказывается в одних трусах на карнизе за окном спальни красотки, и все это снимает телевидение. Как он оказался в этой нелепой ситуации? Всему виной сногсшибательная красавица Шарлотта, женщина в красном платье. У Тедди Пирса, есть все что нужно для счастливой жизни — милая жена, дети, хорошая работа, друзья.

Все бы хорошо, но он отчаянно скучает и переживает кризис среднего возраста. Увидев сногсшибательную красотку в развевающемся красном платье, он безумно влюбляется в нее и теперь единственная цель для него — забраться в ее постель. Все свое свободное время он тайно преследует предмет своей страсти, пытаясь во чтобы не стало осуществить задуманное.

Его друзья пускаются во все тяжкие, чтобы прикрыть его, от исполнения заветного желания отделяет одно мгновение, но…

Страна: США
Продолжительность: 01:26:37
Перевод 1: Профессиональный (многоголосый закадровый) СТС
Перевод 2: Профессиональный (многоголосый закадровый) Екатеринбург Арт
Перевод 3: Авторский (одноголосый закадровый) А. Михалев
Перевод 4: Авторский (одноголосый закадровый) Л. Володарский
Субтитры: английские
Оригинальная аудиодорожка: английский

Файл
Качество: BDRemux 1080р
Видео: AVC / 1920×1080 / 16:9 / 23.976 fps / 26594 kbps / [email protected]
Аудио 1: Rus / AC3 / 48.0 KHz / 2.0 / 192 kbps / MVO / СТС
Аудио 2: Rus / AC3 / 48.0 KHz / 2.0 / 192 kbps / MVO / Екатеринбург Арт
Аудио 3: Rus / AC3 / 48.0 KHz / 2.0 / 192 kbps / AVO / А. Михалев
Аудио 4: Rus / AC3 / 48.0 KHz / 2.0 / 192 kbps / AVO / Л. Володарский
Аудио 5: Eng / FLAC / 48.0 KHz / 2.0 / 566 kbps / 16 bit
Аудио 6: Eng / AC3 / 48.0 KHz / 2.0 / 192 kbps / Commentary by Film Historian Jim Hemphill

Скриншоты

MediaInfo
Общее
Уникальный идентификатор : 55244672099485381572495304039154839003 (0x298FBCA0A81779B22305D3EC5233EDDB)
Полное имя : The.Woman.in.Red.1984.BDRemux.1080p.mkv
Формат : Matroska
Версия формата : Version 4 / Version 2
Размер файла : 17,0 Гбайт
Продолжительность : 1 ч. 26 м.
Режим общего битрейта : Переменный
Общий поток : 28,1 Мбит/сек
Название фильма : The.Woman.in.Red.1984.BDRemux.1080p-porvaliparus
Дата кодирования : UTC 2018-02-10 01:38:57
Программа кодирования : mkvmerge v20.0.0 ('I Am The Sun') 64-bit
Библиотека кодирования : libebml v1.3.5 + libmatroska v1.4.8

Видео
Идентификатор : 1
Формат : AVC
Формат/Информация : Advanced Video Codec
Профиль формата : [email protected]
Настройки формата : CABAC / 4 Ref Frames
Параметр CABAC формата : Да
Параметр RefFrames формата : 4 кадра
Идентификатор кодека : V_MPEG4/ISO/AVC
Продолжительность : 1 ч. 26 м.
Вид битрейта : Переменный
Битрейт : 26,6 Мбит/сек
Максимальный битрейт : 37,5 Мбит/сек
Ширина : 1920 пикселей
Высота : 1080 пикселей
Соотношение сторон : 16:9
Режим частоты кадров : Постоянный
Частота кадров : 23,976 (24000/1001) кадра/сек
Цветовое пространство : YUV
Субдискретизация насыщенности : 4:2:0
Битовая глубина : 8 бит
Тип развёртки : Прогрессивная
Бит/(Пиксели*Кадры) : 0.535
Размер потока : 16,1 Гбайт (95%)
Заголовок : The.Woman.in.Red.1984.BDRemux.1080p
Default : Да
Forced : Нет

Аудио #1
Идентификатор : 2
Формат : AC-3
Формат/Информация : Audio Coding 3
Идентификатор кодека : A_AC3
Продолжительность : 1 ч. 26 м.
Вид битрейта : Постоянный
Битрейт : 192 Кбит/сек
Каналы : 2 канала
Расположение каналов : Front: L R
Частота : 48,0 КГц
Частота кадров : 31,250 кадров/сек (1536 SPF)
Битовая глубина : 16 бит
Метод сжатия : С потерями
Размер потока : 119 Мбайт (1%)
Заголовок : MVO [СТС]
Язык : Russian
Default : Да
Forced : Нет

Аудио #2
Идентификатор : 3
Формат : AC-3
Формат/Информация : Audio Coding 3
Идентификатор кодека : A_AC3
Продолжительность : 1 ч. 26 м.
Вид битрейта : Постоянный
Битрейт : 192 Кбит/сек
Каналы : 2 канала
Расположение каналов : Front: L R
Частота : 48,0 КГц
Частота кадров : 31,250 кадров/сек (1536 SPF)
Битовая глубина : 16 бит
Метод сжатия : С потерями
Размер потока : 119 Мбайт (1%)
Заголовок : MVO [Екатеринбург Арт]
Язык : Russian
Default : Нет
Forced : Нет

Аудио #3
Идентификатор : 4
Формат : AC-3
Формат/Информация : Audio Coding 3
Идентификатор кодека : A_AC3
Продолжительность : 1 ч. 26 м.
Вид битрейта : Постоянный
Битрейт : 192 Кбит/сек
Каналы : 2 канала
Расположение каналов : Front: L R
Частота : 48,0 КГц
Частота кадров : 31,250 кадров/сек (1536 SPF)
Битовая глубина : 16 бит
Метод сжатия : С потерями
Размер потока : 119 Мбайт (1%)
Заголовок : AVO [А. Михалев]
Язык : Russian
Default : Нет
Forced : Нет

Аудио #4
Идентификатор : 5
Формат : AC-3
Формат/Информация : Audio Coding 3
Идентификатор кодека : A_AC3
Продолжительность : 1 ч. 26 м.
Вид битрейта : Постоянный
Битрейт : 192 Кбит/сек
Каналы : 2 канала
Расположение каналов : Front: L R
Частота : 48,0 КГц
Частота кадров : 31,250 кадров/сек (1536 SPF)
Битовая глубина : 16 бит
Метод сжатия : С потерями
Размер потока : 119 Мбайт (1%)
Заголовок : AVO [Л. Володарский]
Язык : Russian
Default : Нет
Forced : Нет

Аудио #5
Идентификатор : 6
Формат : FLAC
Формат/Информация : Free Lossless Audio Codec
Идентификатор кодека : A_FLAC
Продолжительность : 1 ч. 26 м.
Вид битрейта : Переменный
Битрейт : 566 Кбит/сек
Каналы : 2 канала
Расположение каналов : Front: L R
Частота : 48,0 КГц
Частота кадров : 11,719 кадров/сек (4096 SPF)
Битовая глубина : 16 бит
Размер потока : 351 Мбайт (2%)
Библиотека кодирования : libFLAC 1.2.1 (UTC 2007-09-17)
Язык : English
Default : Нет
Forced : Нет

Аудио #6
Идентификатор : 7
Формат : AC-3
Формат/Информация : Audio Coding 3
Идентификатор кодека : A_AC3
Продолжительность : 1 ч. 26 м.
Вид битрейта : Постоянный
Битрейт : 192 Кбит/сек
Каналы : 2 канала
Расположение каналов : Front: L R
Частота : 48,0 КГц
Частота кадров : 31,250 кадров/сек (1536 SPF)
Битовая глубина : 16 бит
Метод сжатия : С потерями
Размер потока : 119 Мбайт (1%)
Заголовок : Commentary by Film Historian Jim Hemphill
Язык : English
Default : Нет
Forced : Нет

Текст
Идентификатор : 8
Формат : UTF-8
Идентификатор кодека : S_TEXT/UTF8
Идентификатор кодека/Информация : UTF-8 Plain Text
Продолжительность : 1 ч. 21 м.
Битрейт : 56 бит/сек
ElementCount : 1042
Размер потока : 33,4 Кбайт (0%)
Язык : English
Default : Нет
Forced : Нет

Меню
00:00:00.000 : en:Chapter 1
00:09:06.297 : en:Chapter 2
00:16:53.388 : en:Chapter 3
00:29:37.068 : en:Chapter 4
00:42:47.065 : en:Chapter 5
00:55:38.378 : en:Chapter 6
01:03:32.268 : en:Chapter 7
01:12:11.078 : en:Chapter 8


Скачать The.Woman.in.Red.1984.BDRemux.1080p.mkv.torrent

просмотры: 8

Post Comment