Аниме

Торико / Toriko TV [01-123 из 147] (2011) HDTVRip | Persona99

Информация о фильме
Название: Торико
Оригинальное название: Toriko
Год выхода: 2011-2014
Жанр: приключения, комедия, фэнтези
Режиссер: Дзако Акифуми

О фильме:
Команда Луфи встречает Охотника за Деликатесами по имени Торико — здоровяка с огромной силищей и не менее огромным аппетитом.

Представьте себе огромную планету, где все мысли разумных обитателей подчинены тому, как правильно, со вкусом, толком и расстановкой поесть! Еда возведена в культ, даже сильные мира сего думают не о порабощении новых народов, а о составлении меню собственного обеда. Всего лишь треть территории – обжитый Мир Людей, где правит МГО – Международная Гурманская Организация, хотя хватает и стран-отщепенцев, и теневых синдикатов. Все остальное – бескрайний Мир Гурманов, где среди дикой и враждебной природы можно найти редкие растения и легендарных животных, которые дают новые ингредиенты уникальных блюд. Разумеется, вход в этот мир, кишащий опасными хищниками и порталами в иные вселенные, открыт только избранным.
Героями планеты являются искусные повара и особый класс охотников, что проникают в Мир Гурманов в поисках новых знаний и вкусов. Торико – молодой, но уже знаменитый охотник-гурман, которому дегустация новых блюд дает сверхчеловеческие способности, неуемный аппетит и великую жажду нового. Его напарник Комацу – юный гений кулинарии, завороженный способностями Торико к открытию невиданных ингредиентов. Дружный тандем движется от приключения к приключению, стараясь воплотить общую мечту – создать лучший в истории полный обед, главное блюдо которого зовется просто: «божественное». А вы его, случайно, не пробовали?
© Hollow, World Art


Релиз GSGroup

Страна: Япония
Студия: Toei Animation
Продолжительность: 00:25:00 серия
Перевод: Любительский одноголосый (Persona99)

Файл
Кодек: XviD
Качество: HDTVRip
Видео: 704×396; 23.976; 1280-1350 kbpc
Звук:
1. AC3 48000Hz 192 kb/s , 2.0 Язык Русский (в составе контейнера) Любительский одноголосый
2. AC3 48000Hz 192 kb/s , 2 channels Язык Японский ; Озвучка 2: оригинал
Субтитры: Нет

Семпл

Скриншоты

Подробные тех. данные
General
Complete name : Toriko12_Toriko_TV_[Persona99](704×396.XviD.AC3).rus.jap.avi
Format : AVI
Format/Info : Audio Video Interleave
File size : 280 MiB
Duration : 23mn 5s
Overall bit rate : 1 696 Kbps
Writing application : VirtualDubMod 1.5.10.2 (build 2540/release)
Writing library : VirtualDubMod build 2540/release

Video
ID : 0
Format : MPEG-4 Visual
Format profile : Advanced [email protected]
Format settings, BVOP : 2
Format settings, QPel : No
Format settings, GMC : No warppoints
Format settings, Matrix : Default (H.263)
Codec ID : XVID
Codec ID/Hint : XviD
Duration : 23mn 5s
Bit rate : 1 297 Kbps
Width : 704 pixels
Height : 396 pixels
Display aspect ratio : 16:9
Frame rate : 23.976 fps
Color space : YUV
Chroma subsampling : 4:2:0
Bit depth : 8 bits
Scan type : Progressive
Compression mode : Lossy
Bits/(Pixel*Frame) : 0.194
Stream size : 214 MiB (77%)
Writing library : XviD 1.2.1 (UTC 2008-12-04)

Audio #1
ID : 1
Format : AC-3
Format/Info : Audio Coding 3
Mode extension : CM (complete main)
Format settings, Endianness : Big
Codec ID : 2000
Duration : 23mn 5s
Bit rate mode : Constant
Bit rate : 192 Kbps
Channel(s) : 2 channels
Channel positions : Front: L R
Sampling rate : 48.0 KHz
Compression mode : Lossy
Stream size : 31.7 MiB (11%)
Alignment : Split accross interleaves
Interleave, duration : 42 ms (1.00 video frame)
Interleave, preload duratio : 500 ms

Audio #2
ID : 2
Format : AC-3
Format/Info : Audio Coding 3
Mode extension : CM (complete main)
Format settings, Endianness : Big
Codec ID : 2000
Duration : 23mn 4s
Bit rate mode : Constant
Bit rate : 192 Kbps
Channel(s) : 2 channels
Channel positions : Front: L R
Sampling rate : 48.0 KHz
Compression mode : Lossy
Stream size : 31.7 MiB (11%)
Alignment : Split accross interleaves
Interleave, duration : 42 ms (1.00 video frame)
Interleave, preload duratio : 500 ms


Скачать Toriko.torrent

просмотры: 6

Post Comment