Вестерн Зарубежные фильмы

Шэйн / Shane (1953) BDRip-AVC | A

Информация о фильме
Название: Шэйн
Оригинальное название: Shane
Год выхода: 1953
Жанр: Вестерн
Режиссер: Джордж Стивенс
В ролях: Бен Джонсон, Алан Лэдд, Джин Артур, Элиша Кук мл., Ван Хефлин, Брэндон Де Уайл

О фильме:
Джо и Мэрион Старретт вместе со своим сыном, обожающим приключения, борются за выживание на своем ранчо в суровом приграничном городке. В один прекрасный день подъезжает одинокий всадник Шэйн и просит воды для себя и своей лошади. Джо выполняет просьбу. Через некоторое время Шэйн уже помогает семье защищать ранчо от злодея Райкера, захватывающего земли под пастбища для своего скота. Шэйн остается работать на ранчо и постепенно становится другом и героем для маленького Джои. С присутствием Шэйна никак не может смириться алчный Райкер. Решительное столкновение неизбежно…

Страна: США
Продолжительность: 01:58:03
Перевод: Авторский одноголосый закадровый (С. Кузнецов)
Субтитры: Английские
Релиз от: Охрана (NNMCLUB)

Файл
Качество: BDRip-AVC
Видео: AVC/H.264, 832×600, ~2575 Kbps
Аудио 1: Русский, AC3, 2 ch, 192 Kbps, 48.0 kHz
Аудио 2: Английский, AC3, 2 ch, 192 Kbps, 48.0 kHz

Mediainfo:
General
Unique ID : 201927292134873055423380875732237663248 (0x97E9C82765C2761DA52F3F04C733BC10)
Complete name : F:DownloadsШейн. 1953. NNMCLUB.mkv
Format : Matroska
Format version : Version 4 / Version 2
File size : 2.44 GiB
Duration : 1h 58mn
Overall bit rate : 2 960 Kbps
Encoded date : UTC 2017-12-05 13:29:09
Writing application : mkvmerge v7.0.0 ('Where We Going') 32bit built on Jun 9 2014 15:08:34
Writing library : libebml v1.3.0 + libmatroska v1.4.1
_STATISTICS_WRITING_APP : mkvmerge v7.0.0 ('Where We Going') 32bit built on Jun 9 2014 15:08:34
_STATISTICS_WRITING_DATE_UTC : 2017-12-05 13:29:09
_STATISTICS_TAGS : BPS DURATION NUMBER_OF_FRAMES NUMBER_OF_BYTES
DURATION : 01:58:03.936000000
NUMBER_OF_FRAMES : 221373
NUMBER_OF_BYTES : 170014464

Video
ID : 1
Format : AVC
Format/Info : Advanced Video Codec
Format profile : [email protected]
Format settings, CABAC : Yes
Format settings, ReFrames : 9 frames
Codec ID : V_MPEG4/ISO/AVC
Duration : 1h 58mn
Bit rate : 2 575 Kbps
Width : 832 pixels
Height : 600 pixels
Display aspect ratio : 1.387
Frame rate mode : Constant
Frame rate : 23.976 fps
Color space : YUV
Chroma subsampling : 4:2:0
Bit depth : 8 bits
Scan type : Progressive
Bits/(Pixel*Frame) : 0.215
Stream size : 2.08 GiB (85%)
Title : Shane
Writing library : x264 core 125 r2208 d9d2288
Encoding settings : cabac=1 / ref=9 / deblock=1:-1:-1 / analyse=0x3:0x133 / me=umh / subme=10 / psy=1 / psy_rd=1.00:0.10 / mixed_ref=1 / me_range=32 / chroma_me=1 / trellis=2 / 8x8dct=1 / cqm=0 / deadzone=21,11 / fast_pskip=0 / chroma_qp_offset=-3 / threads=6 / lookahead_threads=1 / sliced_threads=0 / nr=0 / decimate=0 / interlaced=0 / bluray_compat=0 / constrained_intra=0 / bframes=7 / b_pyramid=2 / b_adapt=2 / b_bias=0 / direct=3 / weightb=1 / open_gop=0 / weightp=2 / keyint=250 / keyint_min=25 / scenecut=40 / intra_refresh=0 / rc_lookahead=60 / rc=2pass / mbtree=1 / bitrate=2575 / ratetol=1.0 / qcomp=0.60 / qpmin=0 / qpmax=69 / qpstep=4 / cplxblur=20.0 / qblur=0.5 / ip_ratio=1.40 / aq=1:1.00
Language : English
Default : Yes
Forced : No

Audio #1
ID : 2
Format : AC-3
Format/Info : Audio Coding 3
Mode extension : CM (complete main)
Format settings, Endianness : Big
Codec ID : A_AC3
Duration : 1h 58mn
Bit rate mode : Constant
Bit rate : 192 Kbps
Channel(s) : 2 channels
Channel positions : Front: L R
Sampling rate : 48.0 KHz
Bit depth : 16 bits
Compression mode : Lossy
Stream size : 162 MiB (6%)
Title : Авторский, С. Кузнецов
Language : Russian
Default : Yes
Forced : No

Audio #2
ID : 3
Format : AC-3
Format/Info : Audio Coding 3
Mode extension : CM (complete main)
Format settings, Endianness : Big
Codec ID : A_AC3
Duration : 1h 58mn
Bit rate mode : Constant
Bit rate : 192 Kbps
Channel(s) : 2 channels
Channel positions : Front: L R
Sampling rate : 48.0 KHz
Bit depth : 16 bits
Compression mode : Lossy
Stream size : 162 MiB (6%)
Title : Оригинал
Language : English
Default : No
Forced : No

Text
ID : 4
Format : UTF-8
Codec ID : S_TEXT/UTF8
Codec ID/Info : UTF-8 Plain Text
Title : SRT
Language : English
Default : No
Forced : No
Скриншоты


Скачать SHeyn._1953.mkv.torrent

просмотры: 10

Post Comment