Детский Зарубежные фильмы

Прощай, Кристофер Робин / Goodbye Christopher Robin (2017) BDRip-AVC от OlLanDGroup | Лицензия

Прощай, Кристофер Робин / Goodbye Christopher Robin
«Inspired by the True Story»


Год выпуска: 2017
Страна: Великобритания
Производство: DJ Films, Fox Searchlight Pictures
Жанр: Семейный, биография, история

Режиссёр: Саймон Кёртис
В ролях: Донал Глисон, Марго Робби, Келли Макдональд, Вики Пеппердин, Уилл Тилстон, Алекс Лоутер, Стивен Кэмпбелл Мур, Ричард МакКейб, Джеральдин Сомервилль, Мосси Смит

Перевод: Профессиональный многоголосый | Лицензия
Субтитры: Русские, Английские
Реклама: Отсутствует

Описание: Фильм рассказывает об отношениях детского писателя Алана Александра Милна и его сына Кристофера Робина, чьи детские игрушки вдохновили отца на создание волшебного мира Винни-Пуха. После публикации книг Милна ждал международный успех. Его прелестные сказки, дали людям надежду и утешение после Первой мировой войны. Но какими последствиями обернется волна столь ошеломительного успеха для семьи Милна и в особенности для его сына, чьим именем был назван главный герой сказок, и к которому теперь приковано внимание всего мира?

Качество: BDRip-AVC
Продолжительность: 1:47:01

Формат: MKV
Видео кодек: MPEG-4 AVC
Аудио кодек: AC3
Видео: 1024×554 (1.85:1), 23,976 fps, x264 ~2 275 kbps avg, 0.167 bit/pixel
Аудио #1: 48 kHz, AC3 Dolby Digital, 3/2 (L,C,R,l,r) + LFE ch, ~448.00 kbps avg | RUS (Лицензия)
Аудио #2: 48 kHz, AC3 Dolby Digital, 3/2 (L,C,R,l,r) + LFE ch, ~448.00 kbps avg | ENG

Дата премьеры (мир): 20 сентября 2017
Дата премьеры (РФ): 23 ноября 2017, «Двадцатый Век Фокс СНГ», «CoolConnections»

Релиз от: Rip by:

MediaInfo

Общее
Уникальный идентификатор : 224731282793462431465472751800074680071 (0xA911ABB2D09BF144957242D27864B707)
Полное имя : E:OlLanDGroupGoodbye.Christopher.Robin.2017.BDRip(AVC).OlLanDGroup.mkv
Формат : Matroska
Версия формата : Version 2
Размер файла : 2,37 Гбайт
Продолжительность : 1 ч. 47 м.
Общий поток : 3171 Кбит/сек
Название фильма : Goodbye Christopher Robin 2017 #TorpedoUK#
Дата кодирования : UTC 2018-02-17 00:33:57
Программа кодирования : mkvmerge v7.8.0 ('River Man') 32bit built on Apr 3 2015 12:11:22
Библиотека кодирования : libebml v1.3.1 + libmatroska v1.4.2

Видео
Идентификатор : 1
Формат : AVC
Формат/Информация : Advanced Video Codec
Профиль формата : [email protected]
Параметр CABAC формата : Да
Параметр ReFrames формата : 10 кадров
Идентификатор кодека : V_MPEG4/ISO/AVC
Продолжительность : 1 ч. 47 м.
Битрейт : 2275 Кбит/сек
Ширина : 1024 пикселя
Высота : 554 пикселя
Соотношение сторон : 1,85:1
Режим частоты кадров : Постоянный
Частота кадров : 23,976 (24000/1001) кадра/сек
Цветовое пространство : YUV
Субдискретизация насыщенности : 4:2:0
Битовая глубина : 8 бит
Тип развёртки : Прогрессивная
Бит/(Пиксели*Кадры) : 0.167
Размер потока : 1,65 Гбайт (70%)
Библиотека кодирования : x264 core 146 r2538 121396c
Настройки программы : cabac=1 / ref=10 / deblock=1:-3:-3 / analyse=0x3:0x133 / me=umh / subme=11 / psy=1 / psy_rd=1.00:0.05 / mixed_ref=1 / me_range=48 / chroma_me=1 / trellis=2 / 8x8dct=1 / cqm=0 / deadzone=21,11 / fast_pskip=1 / chroma_qp_offset=-3 / threads=6 / lookahead_threads=1 / sliced_threads=0 / nr=0 / decimate=1 / interlaced=0 / bluray_compat=0 / constrained_intra=0 / bframes=10 / b_pyramid=2 / b_adapt=2 / b_bias=0 / direct=3 / weightb=1 / open_gop=0 / weightp=2 / keyint=240 / keyint_min=23 / scenecut=40 / intra_refresh=0 / rc_lookahead=40 / rc=2pass / mbtree=0 / bitrate=2275 / ratetol=1.0 / qcomp=0.60 / qpmin=0 / qpmax=69 / qpstep=4 / cplxblur=20.0 / qblur=0.5 / vbv_maxrate=50000 / vbv_bufsize=62500 / nal_hrd=none / filler=0 / ip_ratio=1.40 / pb_ratio=1.30 / aq=1:1.00
Язык : English
Default : Да
Forced : Нет

Аудио #1
Идентификатор : 2
Формат : AC-3
Формат/Информация : Audio Coding 3
Расширение режима : CM (complete main)
Параметр Endianness формата : Big
Идентификатор кодека : A_AC3
Продолжительность : 1 ч. 47 м.
Вид битрейта : Постоянный
Битрейт : 448 Кбит/сек
Каналы : 6 каналов
Расположение каналов : Front: L C R, Side: L R, LFE
Частота : 48,0 КГц
Частота кадров : 31,250 кадров/сек (1536 spf)
Битовая глубина : 16 бит
Метод сжатия : С потерями
Размер потока : 343 Мбайт (14%)
Заголовок : Lic
Язык : Russian
Default : Да
Forced : Нет

Аудио #2
Идентификатор : 3
Формат : AC-3
Формат/Информация : Audio Coding 3
Расширение режима : CM (complete main)
Параметр Endianness формата : Big
Идентификатор кодека : A_AC3
Продолжительность : 1 ч. 47 м.
Вид битрейта : Постоянный
Битрейт : 448 Кбит/сек
Каналы : 6 каналов
Расположение каналов : Front: L C R, Side: L R, LFE
Частота : 48,0 КГц
Частота кадров : 31,250 кадров/сек (1536 spf)
Битовая глубина : 16 бит
Метод сжатия : С потерями
Размер потока : 343 Мбайт (14%)
Заголовок : Original
Язык : English
Default : Нет
Forced : Нет

Текст #1
Идентификатор : 4
Формат : UTF-8
Идентификатор кодека : S_TEXT/UTF8
Идентификатор кодека/Информация : UTF-8 Plain Text
Заголовок : Full
Язык : Russian
Default : Нет
Forced : Нет

Текст #2
Идентификатор : 5
Формат : UTF-8
Идентификатор кодека : S_TEXT/UTF8
Идентификатор кодека/Информация : UTF-8 Plain Text
Заголовок : Full
Язык : English
Default : Нет
Forced : Нет

Текст #3
Идентификатор : 6
Формат : UTF-8
Идентификатор кодека : S_TEXT/UTF8
Идентификатор кодека/Информация : UTF-8 Plain Text
Заголовок : SDH
Язык : English
Default : Нет
Forced : Нет

Меню
00:00:00.000 : en:Chapter 01
00:04:03.952 : en:Chapter 02
00:07:01.171 : en:Chapter 03
00:10:32.632 : en:Chapter 04
00:13:40.528 : en:Chapter 05
00:16:48.591 : en:Chapter 06
00:20:43.409 : en:Chapter 07
00:25:44.793 : en:Chapter 08
00:30:36.752 : en:Chapter 09
00:35:25.582 : en:Chapter 10
00:40:50.740 : en:Chapter 11
00:48:22.108 : en:Chapter 12
00:52:32.733 : en:Chapter 13
00:57:53.595 : en:Chapter 14
01:03:35.812 : en:Chapter 15
01:07:38.513 : en:Chapter 16
01:12:43.859 : en:Chapter 17
01:18:55.731 : en:Chapter 18
01:21:45.609 : en:Chapter 19
01:25:16.653 : en:Chapter 20
01:29:10.428 : en:Chapter 21
01:32:27.917 : en:Chapter 22
01:35:55.917 : en:Chapter 23
01:41:03.266 : en:Chapter 24

Скриншоты




Скачать Goodbye.Christopher.Robin.2017.BDRipAVC.OlLanDG.torrent

просмотры: 7

Post Comment