Драма Зарубежные фильмы

Медвежатник / The Score (2001) BDRip 1080p | P, P2, A






Информация о фильме
Название: Медвежатник
Оригинальное название: The Score
Год выхода: 2001
Жанр: Триллер, боевик, драма, криминал
Режиссер: Фрэнк Оз
В ролях: Роберт Де Ниро, Эдвард Нортон, Марлон Брандо, Анджела Бассетт, Гэри Фармер, Пол Соулз, Джэми Харольд, Серж Уд, Жан-Рене Уэлле, Мартин Дрэнвиль




О фильме:
Ник Уеллс — профессиональный вор, решивший отойти от дел, после того, как его чуть было не поймали во время последнего дела. Теперь он живёт в Монреале, владеет джаз-клубом и наслаждается жизнью со своей невестой. Однако бывший партнер по нелегальному бизнесу предлагает Нику выкрасть старинный и бесценный французский скипетр, перед отправкой во Францию хранящийся в монреальской таможне. Нику придётся работать в паре с молодым и агрессивным вором Джеком Теллером, который собирается сделать всё возможное, чтобы после этого дела Ник остался ни с чем.





Страна: США, Германия
Студия: Cineartists AG, Eagle Point Production и др.
Продолжительность: 02:04:06
Перевод:
Профессиональный (многоголосый, закадровый) Позитив-Мультимедиа
+ Профессиональный (многоголосый, закадровый) R1
+ Профессиональный (двухголосый, закадровый) Премьер
+ Авторский одноголосый А.Гаврилов
+ Авторский одноголосый В.Горчаков
+ Авторский одноголосый Ю.Живов








Файл
Кодек: MPEG4/ISO/AVC
Формат: MKV
Качество: BDRip 1080p
Видео: 1920 x 816 (2.353) at 23.976 fps/AVC at 10,8 Мбит/сек
Аудио #01: Russian: 48 kHz, DTS, 3/2 (L,C,R,l,r) + LFE ch, ~1509 kbps avg |Многоголосый закадровый, Позитив-Мультимедиа|
Аудио #02: Russian: 48 kHz, AC3, 3/2 (L,C,R,l,r) + LFE ch, ~448 kbps avg |Многоголосый закадровый, R1|
Аудио #03: Russian: 48 kHz, AC3, 2/0 (L,R) ch, ~192 kbps avg |Двухголосый закадровый, Премьер|
Аудио #04: Ukrainian, 48.0 KHz, AC3, 2 ch, 192 Kbps — Многоголосый закадровый — Інтер
Аудио #05: Ukrainian, 48.0 KHz, AC3, 2 ch, 192 Kbps — Многоголосый закадровый — ICTV
Аудио #06: Ukrainian, 48.0 KHz, AC3, 2 ch, 192 Kbps — Двухголосый закадровый — 2+2
Аудио #07: Russian: 48 kHz, DTS, 3/2 (L,C,R,l,r) + LFE ch, ~1509 kbps avg |Одноголосый закадровый, А. Гаврилов|
Аудио #08: Russian: 48 kHz, DTS, 3/2 (L,C,R,l,r) + LFE ch, ~1509 kbps avg |Одноголосый закадровый, В. Горчаков|
Аудио #09: Russian: 48 kHz, DTS, 3/2 (L,C,R,l,r) + LFE ch, ~1509 kbps avg |Одноголосый закадровый, Ю. Живов|
Аудио #10: English: 48 kHz, DTS, 3/2 (L,C,R,l,r) + LFE ch, ~1509 kbps avg
Субтитры: русские, украинские, английские




Скриншоты


MediaInfo
Видео


Общее
Уникальный идентификатор : 184037056007495427966643833915124221986 (0x8A743F698A5FEE0BBDB7E6D17C8C0822)
Полное имя : F:The.Score.2001.1080p.BluRay.6xRus.3xUkr.Eng.HDCLUB.mkv
Формат : Matroska
Версия формата : Version 4 / Version 2
Размер файла : 22,7 Гбайт
Продолжительность : 2 ч. 4 м.
Общий поток : 26,2 Мбит/сек
Название фильма : The Score (2001) — Encode by SbR
Дата кодирования : UTC 2018-02-14 17:52:50
Программа кодирования : mkvmerge v7.9.0 ('Birds') 64bit
Библиотека кодирования : libebml v1.3.1 + libmatroska v1.4.2
DURATION : 01:53:54.900000000
NUMBER_OF_FRAMES : 1093
NUMBER_OF_BYTES : 140675
_STATISTICS_WRITING_APP : mkvmerge v7.9.0 ('Birds') 64bit
_STATISTICS_WRITING_DATE_UTC : 2018-02-14 17:52:50
_STATISTICS_TAGS : BPS DURATION NUMBER_OF_FRAMES NUMBER_OF_BYTES
Attachment : Yes / Yes

Видео
Идентификатор : 1
Формат : AVC
Формат/Информация : Advanced Video Codec
Профиль формата : [email protected]
Параметр CABAC формата : Да
Параметр ReFrames формата : 5 кадров
Идентификатор кодека : V_MPEG4/ISO/AVC
Продолжительность : 2 ч. 4 м.
Битрейт : 17,0 Мбит/сек
Ширина : 1920 пикселей
Высота : 818 пикселей
Соотношение сторон : 2,35:1
Режим частоты кадров : Постоянный
Частота кадров : 23,976 кадра/сек
Цветовое пространство : YUV
Субдискретизация насыщенности : 4:2:0
Битовая глубина : 8 бит
Тип развёртки : Прогрессивная
Бит/(Пиксели*Кадры) : 0.450
Размер потока : 14,7 Гбайт (65%)
Заголовок : Release for HDCLUB
Библиотека кодирования : x264 core 146 r2538kMod 121396c
Настройки программы : cabac=1 / ref=5 / deblock=1:-2:-2 / analyse=0x3:0x133 / me=umh / subme=11 / psy=1 / fade_compensate=0.00 / psy_rd=1.00:0.00 / mixed_ref=1 / me_range=32 / chroma_me=1 / trellis=2 / 8x8dct=1 / cqm=0 / deadzone=21,11 / fast_pskip=1 / chroma_qp_offset=-2 / threads=12 / lookahead_threads=2 / sliced_threads=0 / nr=0 / decimate=1 / interlaced=0 / bluray_compat=0 / constrained_intra=0 / fgo=0 / bframes=8 / b_pyramid=2 / b_adapt=2 / b_bias=0 / direct=1 / weightb=1 / open_gop=0 / weightp=2 / keyint=250 / keyint_min=23 / scenecut=40 / intra_refresh=0 / rc_lookahead=60 / rc=crf / mbtree=0 / crf=16.5000 / qcomp=0.70 / qpmin=0 / qpmax=69 / qpstep=4 / vbv_maxrate=62500 / vbv_bufsize=78125 / crf_max=0.0 / nal_hrd=none / filler=0 / ip_ratio=1.40 / pb_ratio=1.30 / aq=1:0.80
Язык : English
Default : Да
Forced : Нет
Основные цвета : BT.709
Характеристики трансфера : BT.709
Коэффициенты матрицы : BT.709

Аудио #1
Идентификатор : 2
Формат : DTS
Формат/Информация : Digital Theater Systems
Режим : 16
Параметр Endianness формата : Big
Идентификатор кодека : A_DTS
Продолжительность : 2 ч. 4 м.
Вид битрейта : Постоянный
Битрейт : 1509 Кбит/сек
Каналы : 6 каналов
Расположение каналов : Front: L C R, Side: L R, LFE
Частота : 48,0 КГц
Битовая глубина : 16 бит
Метод сжатия : С потерями
Размер потока : 1,31 Гбайт (6%)
Заголовок : Многоголосый закадровый — Позитив-Мультимедиа
Язык : Russian
Default : Да
Forced : Нет

Аудио #2
Идентификатор : 3
Формат : AC-3
Формат/Информация : Audio Coding 3
Расширение режима : CM (complete main)
Параметр Endianness формата : Big
Идентификатор кодека : A_AC3
Продолжительность : 2 ч. 4 м.
Вид битрейта : Постоянный
Битрейт : 448 Кбит/сек
Каналы : 6 каналов
Расположение каналов : Front: L C R, Side: L R, LFE
Частота : 48,0 КГц
Битовая глубина : 16 бит
Метод сжатия : С потерями
Размер потока : 398 Мбайт (2%)
Заголовок : Многоголосый закадровый — R1
Язык : Russian
Default : Нет
Forced : Нет

Аудио #3
Идентификатор : 4
Формат : AC-3
Формат/Информация : Audio Coding 3
Расширение режима : CM (complete main)
Параметр Endianness формата : Big
Идентификатор кодека : A_AC3
Продолжительность : 2 ч. 4 м.
Вид битрейта : Постоянный
Битрейт : 192 Кбит/сек
Каналы : 2 канала
Расположение каналов : Front: L R
Частота : 48,0 КГц
Битовая глубина : 16 бит
Метод сжатия : С потерями
Размер потока : 170 Мбайт (1%)
Заголовок : Двухголосый закадровый — Премьер видео фильм
Язык : Russian
Default : Нет
Forced : Нет

Аудио #4
Идентификатор : 5
Формат : AC-3
Формат/Информация : Audio Coding 3
Расширение режима : CM (complete main)
Параметр Endianness формата : Big
Идентификатор кодека : A_AC3
Продолжительность : 2 ч. 4 м.
Вид битрейта : Постоянный
Битрейт : 192 Кбит/сек
Каналы : 2 канала
Расположение каналов : Front: L R
Частота : 48,0 КГц
Битовая глубина : 16 бит
Метод сжатия : С потерями
Размер потока : 170 Мбайт (1%)
Заголовок : Многоголосый закадровый — Інтер
Язык : Ukrainian
Default : Нет
Forced : Нет

Аудио #5
Идентификатор : 6
Формат : AC-3
Формат/Информация : Audio Coding 3
Расширение режима : CM (complete main)
Параметр Endianness формата : Big
Идентификатор кодека : A_AC3
Продолжительность : 2 ч. 4 м.
Вид битрейта : Постоянный
Битрейт : 192 Кбит/сек
Каналы : 2 канала
Расположение каналов : Front: L R
Частота : 48,0 КГц
Битовая глубина : 16 бит
Метод сжатия : С потерями
Размер потока : 170 Мбайт (1%)
Заголовок : Многоголосый закадровый — ICTV
Язык : Ukrainian
Default : Нет
Forced : Нет

Аудио #6
Идентификатор : 7
Формат : AC-3
Формат/Информация : Audio Coding 3
Расширение режима : CM (complete main)
Параметр Endianness формата : Big
Идентификатор кодека : A_AC3
Продолжительность : 2 ч. 4 м.
Вид битрейта : Постоянный
Битрейт : 192 Кбит/сек
Каналы : 2 канала
Расположение каналов : Front: L R
Частота : 48,0 КГц
Битовая глубина : 16 бит
Метод сжатия : С потерями
Размер потока : 170 Мбайт (1%)
Заголовок : Двухголосый закадровый — 2+2
Язык : Ukrainian
Default : Нет
Forced : Нет

Аудио #7
Идентификатор : 8
Формат : DTS
Формат/Информация : Digital Theater Systems
Режим : 16
Параметр Endianness формата : Big
Идентификатор кодека : A_DTS
Продолжительность : 2 ч. 4 м.
Вид битрейта : Постоянный
Битрейт : 1509 Кбит/сек
Каналы : 6 каналов
Расположение каналов : Front: L C R, Side: L R, LFE
Частота : 48,0 КГц
Битовая глубина : 24 бит
Метод сжатия : С потерями
Размер потока : 1,31 Гбайт (6%)
Заголовок : Авторский — Гаврилов
Язык : Russian
Default : Нет
Forced : Нет

Аудио #8
Идентификатор : 9
Формат : DTS
Формат/Информация : Digital Theater Systems
Режим : 16
Параметр Endianness формата : Big
Идентификатор кодека : A_DTS
Продолжительность : 2 ч. 4 м.
Вид битрейта : Постоянный
Битрейт : 1510 Кбит/сек
Каналы : 6 каналов
Расположение каналов : Front: L C R, Side: L R, LFE
Частота : 48,0 КГц
Битовая глубина : 24 бит
Метод сжатия : С потерями
Размер потока : 1,31 Гбайт (6%)
Заголовок : Авторский — Горчаков
Язык : Russian
Default : Нет
Forced : Нет

Аудио #9
Идентификатор : 10
Формат : DTS
Формат/Информация : Digital Theater Systems
Режим : 16
Параметр Endianness формата : Big
Идентификатор кодека : A_DTS
Продолжительность : 2 ч. 4 м.
Вид битрейта : Постоянный
Битрейт : 1510 Кбит/сек
Каналы : 6 каналов
Расположение каналов : Front: L C R, Side: L R, LFE
Частота : 48,0 КГц
Битовая глубина : 24 бит
Метод сжатия : С потерями
Размер потока : 1,31 Гбайт (6%)
Заголовок : Авторский — Живов
Язык : Russian
Default : Нет
Forced : Нет

Аудио #10
Идентификатор : 11
Формат : DTS
Формат/Информация : Digital Theater Systems
Режим : 16
Параметр Endianness формата : Big
Идентификатор кодека : A_DTS
Продолжительность : 2 ч. 4 м.
Вид битрейта : Постоянный
Битрейт : 1509 Кбит/сек
Каналы : 6 каналов
Расположение каналов : Front: L C R, Side: L R, LFE
Частота : 48,0 КГц
Битовая глубина : 24 бит
Метод сжатия : С потерями
Размер потока : 1,31 Гбайт (6%)
Язык : English
Default : Нет
Forced : Нет

Текст #1
Идентификатор : 12
Формат : UTF-8
Идентификатор кодека : S_TEXT/UTF8
Идентификатор кодека/Информация : UTF-8 Plain Text
Язык : Russian
Default : Нет
Forced : Нет

Текст #2
Идентификатор : 13
Формат : UTF-8
Идентификатор кодека : S_TEXT/UTF8
Идентификатор кодека/Информация : UTF-8 Plain Text
Язык : Ukrainian
Default : Да
Forced : Нет

Текст #3
Идентификатор : 14
Формат : UTF-8
Идентификатор кодека : S_TEXT/UTF8
Идентификатор кодека/Информация : UTF-8 Plain Text
Язык : English
Default : Нет
Forced : Нет

Меню
00:00:00.000 : en:Close Call
00:10:34.342 : en:Four Million Dollars
00:16:47.214 : en:Serious Thought
00:22:11.663 : en:"You're About to Give in"
00:32:47.590 : en:The Set Up
00:37:43.803 : en:Mapping the Maze
00:46:34.833 : en:One Last Job
00:57:19.602 : en:Pass Codes
01:05:02.857 : en:Long Shots
01:09:59.820 : en:Too Risky
01:18:38.797 : en:Brian's New Shoes
01:26:06.744 : en:The Break In
01:35:49.243 : en:Left Hanging
01:45:18.979 : en:Getaway
01:54:36.703 : en:"What Have You Got?"




Релиз от:


Скачать The.Score.2001.1080p.BluRay.6xRus.3xUkr.Eng.HDC.torrent

просмотры: 3

Post Comment