Вестерн Зарубежные фильмы

Телохранитель / Yôjinbô (1961) BDRip 720p | P, A, L

Информация о фильме
Название: Телохранитель
Оригинальное название: Yôjinbô
Год выхода: 1961
Жанр: Боевик, триллер, комедия, драма, криминал
Режиссер: Акира Куросава
В ролях: Тосиро Мифуне, Татсуя Накадаи, Исузу Ямада, Дайсукэ Като, Такаси Симура, Ёсукэ Нацуки, Эйдзиро Тоно, Каматари Фудзивара, Икио Савамура, Атсуси Ватанабе, Киу Сазанка, Джен Симидзу, Ютака Сада, Фумико Хомма

О фильме:
Описание фильмаБезусловно этот фильм является одним из лучших, когда-либо созданных, в жанре экшн гением японского кино А. Куросавой. Ветер несет сухие листья по пустынным улицам захолустного городка, и на одной из этих улиц появляется одинокий странник — самурай по имени Санзюро. Он совсем не похож на смазливых героев конвейерных американских вестернов, которые с фатальной неизбежностью выбирают правильную сторону. Санзюро — откровенный наемник, готовый на все, лишенный чувства долга и морали. Не задумываясь он переходит на сторону тех, кто больше заплатит. Ну, а его противники, местные головорезы, настолько злобны, что становятся смешными, не пробуждая ни сочувствия, ни жалости. Гибель большинства из них в собственном кровавом аду неизбежна. Тосиро Мифуне, так же как и в "Семи самураях", блестяще сыграл главную роль и получил главный приз на фестивале в Венеции в 1961 году.

Выпущено: Япония
Продолжительность: 01:50:52
Перевод:
1: Русский: профессиональный Многоголосый закадровый, Cinema Prestige
1: Русский: профессиональный Многоголосый закадровый, DVD Магия
1: Русский: одноголосый закадровый (авторский) Пучков Дмитрий
1: Русский: одноголосый закадровый (авторский) Живов Юрий
1: Русский: любительский одноголосый закадровый, Transaktosh
Навигация по главам: есть


MediaInfo:

MI
General
Unique ID : 189952400988501703465340439988670081706 (0x8EE7806FE2132DBEA7B23D2E8B08AAAA)
Complete name : Yojinbo.1961.720p.BluRay.5xRus.Jap.Eng.HDCLUB-Skazhutin.mkv
Format : Matroska
Format version : Version 2
File size : 10.8 GiB
Duration : 1h 50mn
Overall bit rate : 14.0 Mbps
Movie name : Yôjinbô (1961) — Release for HDCLUB by Skazhutin & 7ime 7raveller
Encoded date : UTC 2012-08-23 07:58:46
Writing application : mkvmerge v5.7.0 ('The Whirlwind') built on Jul 8 2012 20:08:51
Writing library : libebml v1.2.3 + libmatroska v1.3.0
Attachment : Yes / Yes

Video
ID : 1
Format : AVC
Format/Info : Advanced Video Codec
Format profile : [email protected]
Format settings, CABAC : Yes
Format settings, ReFrames : 12 frames
Codec ID : V_MPEG4/ISO/AVC
Bit rate : 9 711 Kbps
Width : 1 280 pixels
Height : 544 pixels
Display aspect ratio : 2.35:1
Frame rate mode : Variable
Original frame rate : 23.976 fps
Color space : YUV
Chroma subsampling : 4:2:0
Bit depth : 8 bits
Scan type : Progressive
Title : Release for HDCLUB
Writing library : x264 core 125 r2200kMod 999b753
Encoding settings : cabac=1 / ref=12 / deblock=1:-3:-3 / analyse=0x3:0x113 / me=umh / subme=11 / psy=1 / fade_compensate=0.00 / psy_rd=0.90:0.00 / mixed_ref=1 / me_range=48 / chroma_me=1 / trellis=2 / 8x8dct=1 / cqm=0 / deadzone=21,11 / fast_pskip=1 / chroma_qp_offset=-2 / threads=12 / lookahead_threads=2 / sliced_threads=0 / nr=0 / decimate=1 / interlaced=0 / bluray_compat=0 / constrained_intra=0 / bframes=16 / b_pyramid=2 / b_adapt=2 / b_bias=0 / direct=1 / weightb=1 / open_gop=0 / weightp=2 / keyint=250 / keyint_min=23 / scenecut=40 / intra_refresh=0 / rc_lookahead=40 / rc=crf / mbtree=0 / crf=17.0000 / qcomp=0.60 / qpmin=0 / qpmax=69 / qpstep=4 / vbv_maxrate=50000 / vbv_bufsize=62500 / crf_max=0.0 / nal_hrd=none / ip_ratio=1.40 / pb_ratio=1.30 / aq=1:0.80
Language : Japanese
Default : Yes
Forced : No
Matrix coefficients : BT.709

Audio #1
ID : 2
Format : AC-3
Format/Info : Audio Coding 3
Mode extension : CM (complete main)
Format settings, Endianness : Big
Codec ID : A_AC3
Duration : 1h 50mn
Bit rate mode : Constant
Bit rate : 192 Kbps
Channel(s) : 2 channels
Channel positions : Front: L R
Sampling rate : 48.0 KHz
Bit depth : 16 bits
Compression mode : Lossy
Stream size : 152 MiB (1%)
Title : AC3 2.0 @ 192 kbps — Многоголосый, Cinema Prestige
Language : Russian
Default : Yes
Forced : No

Audio #2
ID : 3
Format : AC-3
Format/Info : Audio Coding 3
Mode extension : CM (complete main)
Format settings, Endianness : Big
Codec ID : A_AC3
Duration : 1h 50mn
Bit rate mode : Constant
Bit rate : 256 Kbps
Channel(s) : 2 channels
Channel positions : Front: L R
Sampling rate : 48.0 KHz
Bit depth : 16 bits
Compression mode : Lossy
Stream size : 203 MiB (2%)
Title : AC3 2.0 @ 256 kbps — Многоголосый, DVD Магия
Language : Russian
Default : No
Forced : No

Audio #3
ID : 4
Format : AC-3
Format/Info : Audio Coding 3
Mode extension : CM (complete main)
Format settings, Endianness : Big
Codec ID : A_AC3
Duration : 1h 50mn
Bit rate mode : Constant
Bit rate : 256 Kbps
Channel(s) : 2 channels
Channel positions : Front: L R
Sampling rate : 48.0 KHz
Bit depth : 16 bits
Compression mode : Lossy
Stream size : 203 MiB (2%)
Title : AC3 2.0 @ 256 kbps — Одноголосый, Д. Пучков
Language : Russian
Default : No
Forced : No

Audio #4
ID : 5
Format : DTS
Format/Info : Digital Theater Systems
Codec ID : A_DTS
Duration : 1h 50mn
Bit rate mode : Constant
Bit rate : 1 510 Kbps
Channel(s) : 3 channels
Channel positions : Front: L C R
Sampling rate : 48.0 KHz
Bit depth : 24 bits
Compression mode : Lossy
Stream size : 1.17 GiB (11%)
Title : DTS 3.0 @ 1536 kbps — Одноголосый, Ю. Живов
Language : Russian
Default : No
Forced : No

Audio #5
ID : 6
Format : AC-3
Format/Info : Audio Coding 3
Mode extension : CM (complete main)
Format settings, Endianness : Big
Codec ID : A_AC3
Duration : 1h 50mn
Bit rate mode : Constant
Bit rate : 128 Kbps
Channel(s) : 1 channel
Channel positions : Front: C
Sampling rate : 48.0 KHz
Bit depth : 16 bits
Compression mode : Lossy
Stream size : 102 MiB (1%)
Title : AC3 1.0 @ 128 kbps — Одноголосый, Transaktosh
Language : Russian
Default : No
Forced : No

Audio #6
ID : 7
Format : DTS
Format/Info : Digital Theater Systems
Codec ID : A_DTS
Duration : 1h 50mn
Bit rate mode : Constant
Bit rate : 1 510 Kbps
Channel(s) : 3 channels
Channel positions : Front: L C R
Sampling rate : 48.0 KHz
Bit depth : 24 bits
Compression mode : Lossy
Stream size : 1.17 GiB (11%)
Title : DTS 3.0 @ 1536 kbps
Language : Japanese
Default : No
Forced : No

Audio #7
ID : 8
Format : AC-3
Format/Info : Audio Coding 3
Mode extension : CM (complete main)
Format settings, Endianness : Big
Codec ID : A_AC3
Duration : 1h 50mn
Bit rate mode : Constant
Bit rate : 128 Kbps
Channel(s) : 1 channel
Channel positions : Front: C
Sampling rate : 48.0 KHz
Bit depth : 16 bits
Compression mode : Lossy
Stream size : 102 MiB (1%)
Title : AC3 1.0 @ 128 kbps — Commentary by film historian Stephen Prince
Language : English
Default : No
Forced : No

Text #1
ID : 9
Format : UTF-8
Codec ID : S_TEXT/UTF8
Codec ID/Info : UTF-8 Plain Text
Title : Д. Пучков
Language : Russian
Default : No
Forced : No

Text #2
ID : 10
Format : UTF-8
Codec ID : S_TEXT/UTF8
Codec ID/Info : UTF-8 Plain Text
Title : С. Петров (Senya), FenixClub
Language : Russian
Default : No
Forced : No

Text #3
ID : 11
Format : UTF-8
Codec ID : S_TEXT/UTF8
Codec ID/Info : UTF-8 Plain Text
Language : English
Default : No
Forced : No

Menu
00:00:00.000 : en:Chapter 1
00:05:55.813 : en:Chapter 2
00:16:19.770 : en:Chapter 3
00:20:04.578 : en:Chapter 4
00:21:14.731 : en:Chapter 5
00:23:33.954 : en:Chapter 6
00:25:52.384 : en:Chapter 7
00:32:45.338 : en:Chapter 8
00:38:59.253 : en:Chapter 9
00:42:38.138 : en:Chapter 10
00:46:31.038 : en:Chapter 11
00:49:35.973 : en:Chapter 12
00:51:17.657 : en:Chapter 13
00:56:05.195 : en:Chapter 14
00:59:19.264 : en:Chapter 15
01:03:19.670 : en:Chapter 16
01:05:22.209 : en:Chapter 17
01:07:19.785 : en:Chapter 18
01:12:05.112 : en:Chapter 19
01:13:49.466 : en:Chapter 20
01:18:47.639 : en:Chapter 21
01:23:24.582 : en:Chapter 22
01:32:26.290 : en:Chapter 23
01:38:10.175 : en:Chapter 24
01:39:59.618 : en:Chapter 25
01:41:24.995 : en:Chapter 26

x264 log

Код:
avs [info]: 1280x544p 1:1 @ 24000/1001 fps (cfr)
x264 [info]: using SAR=1/1
x264 [info]: using cpu capabilities: MMX2 SSE2Fast SSSE3 FastShuffle SSE4.2 AVX
x264 [info]: profile High, level 4.1
x264 [info]: started at Thu Jul 05 17:45:08 2012
x264 [info]: frame I:787 Avg QP:19.34 size:116824
x264 [info]: frame P:29378 Avg QP:20.53 size: 74844
x264 [info]: frame B:129319 Avg QP:22.63 size: 47064
x264 [info]: consecutive B-frames: 0.8% 1.2% 4.1% 15.2% 12.9% 43.5% 6.1% 4.2% 3.7% 1.9% 2.0% 2.4% 0.9% 0.4% 0.3% 0.2% 0.3%
x264 [info]: mb I I16..4: 1.1% 88.7% 10.2%
x264 [info]: mb P I16..4: 0.1% 33.5% 1.2% P16..4: 21.1% 28.6% 14.8% 0.0% 0.0% skip: 0.7%
x264 [info]: mb B I16..4: 0.0% 12.6% 0.2% B16..8: 32.4% 25.1% 8.6% direct:14.1% skip: 6.9% L0:45.5% L1:33.3% BI:21.2%
x264 [info]: 8×8 transform intra:97.3% inter:61.3%
x264 [info]: coded y,uvDC,uvAC intra: 99.3% 0.0% 0.0% inter: 71.4% 0.0% 0.0%
x264 [info]: i16 v,h,dc,p: 69% 13% 10% 8%
x264 [info]: i8 v,h,dc,ddl,ddr,vr,hd,vl,hu: 9% 7% 14% 10% 13% 11% 12% 11% 12%
x264 [info]: i4 v,h,dc,ddl,ddr,vr,hd,vl,hu: 9% 6% 3% 9% 18% 16% 15% 12% 12%
x264 [info]: i8c dc,h,v,p: 99% 1% 0% 0%
x264 [info]: Weighted P-Frames: Y:14.2% UV:0.0%
x264 [info]: ref P L0: 30.5% 11.1% 17.2% 8.8% 7.6% 5.5% 5.2% 3.1% 3.1% 2.5% 2.6% 2.3% 0.4% 0.0%
x264 [info]: ref B L0: 56.9% 14.6% 8.5% 5.1% 3.9% 3.4% 2.8% 1.9% 1.7% 0.9% 0.3%
x264 [info]: ref B L1: 88.7% 11.3%
x264 [info]: kb/s:10074.76

encoded 159484 frames, 5.58 fps, 10074.77 kb/s
x264 [info]: ended at Fri Jul 06 01:41:50 2012


Файл
Формат: Matroska
Качество: BDRip 720
Видео: 1280×544 (2.353); 10074 Kbps; 23,976 fps
Звук:
Аудио: Russian / Dolby Digital Audio / 2.0 / 48 kHz / 192 kbps / Cinema Prestige
Аудио: Russian / Dolby Digital Audio / 2.0 / 48 kHz / 256 kbps / DVD Магия
Аудио: Russian / Dolby Digital Audio / 2.0 / 48 kHz / 256 kbps / Д. Пучков
Аудио: Russian / DTS Audio / 3.0 / 48 kHz / 1536 kbps / Ю. Живов
Аудио: Russian / Dolby Digital Audio / 1.0 / 48 kHz / 128 kbps / Transaktosh
Аудио: Japanese; DTS Audio / 3.0 / 48 kHz / 1536 kbps
Аудио: English / Dolby Digital Audio / 1.0 / 48 kHz / 128 kbps / Commentary by film historian Stephen Prince
Субтитры: Russian (Д. Пучков), Russian (С. Петров (Senya), FenixClub), English

Кадры из фильма:

Релиз от: &


Скачать Yojinbo.1961.720p.BluRay.5xRus.Jap.Eng.HDCLUB-S.torrent

просмотры: 2

Post Comment