Детектив Зарубежные фильмы

Тайна 7 сестер / Seven Sisters (2017) BDRip-HEVC 1080p от ХиМиК | D | Лицензия

Информация о фильме
Название: Тайна 7 сестер
Оригинальное название: Seven Sisters
Год выхода: 2017
Жанр: фантастика, боевик, триллер, драма, криминал, детектив, приключения
Режиссер: Томми Виркола
В ролях: Нуми Рапас, Гленн Клоуз, Уиллем Дефо, Марван Кензари, Кристиан Рубек, Пол Сверре Валхейм Хаген, Адетомива Едун, Кэсси Клер, Камерон Джек, Клара Рид, Кирсти Эвертон, Lucy Pearson

О фильме:
В мире, где семейным парам разрешено иметь только одного ребенка, рождается семь сестер-близняшек. Родители решают сохранить всех и дают малышкам имена в честь дней недели. Так девочки и появляются на людях — каждая в свой день. Но однажды Понедельник пропадает…

Страна: Великобритания, Франция, Бельгия, США
Студия: Nexus Factory, Raffaella Productions, SND
Продолжительность: 02:03:18
Перевод: Дублированный (лицензия)

Файл
Кодек: HEVC x265 10 bit
Качество: BDRip-HEVC 1080p
Видео: 1920×804 (2.40:1), 4291 Кбит/сек, 0.116 бит/(Пиксели*Кадры), 24,000 кадр/сек, HEVC ([email protected]@High) 10 бит
Звук:
Русская, AC3, 384 Кбит/сек, Front: L C R, Side: L R, LFE, 48,0 КГц (Дубляж лицензия)
Английская, AC3, 448 Кбит/сек, Front: L C R, Side: L R, LFE, 48,0 КГц (Оригинал)
Субтитры: Английские
Разделение по главам: есть

Семпл

MediaInfo

General
Unique ID : 177840241417486194854886542788432474319 (0x85CAC8DD44E68DA9BDCE67F6F98BB0CF)
Complete name : H:HEVC 210 BITSeven Sisters_2017_BDRip_1080p_[HEVC]_10bit (1).mkv
Format : Matroska
Format version : Version 4 / Version 2
File size : 4.47 GiB
Duration : 2 h 3 min
Overall bit rate : 5 190 kb/s
Encoded date : UTC 2018-02-06 12:25:03
Writing application : mkvmerge v18.0.0 ('Apricity') 64-bit
Writing library : libebml v1.3.5 + libmatroska v1.4.8
Cover : Yes
Attachments : cover.png

Video
ID : 1
Format : HEVC
Format/Info : High Efficiency Video Coding
Format profile : Main [email protected]@High
Codec ID : V_MPEGH/ISO/HEVC
Duration : 2 h 3 min
Bit rate : 4 291 kb/s
Width : 1 920 pixels
Height : 804 pixels
Display aspect ratio : 2.40:1
Frame rate mode : Constant
Frame rate : 24.000 FPS
Color space : YUV
Chroma subsampling : 4:2:0
Bit depth : 10 bits
Bits/(Pixel*Frame) : 0.116
Stream size : 3.70 GiB (83%)
Writing library : x265 2.6+22-ff02513b92c0:[Windows][GCC 7.2.0][64 bit] 10bit
Encoding settings : cpuid=1173503 / frame-threads=4 / numa-pools=16 / wpp / no-pmode / no-pme / no-psnr / no-ssim / log-level=2 / input-csp=1 / input-res=1920×804 / interlace=0 / total-frames=0 / level-idc=41 / high-tier=1 / uhd-bd=0 / ref=5 / no-allow-non-conformance / no-repeat-headers / annexb / no-aud / no-hrd / info / hash=0 / no-temporal-layers / open-gop / min-keyint=24 / keyint=240 / gop-lookahead=0 / bframes=8 / b-adapt=2 / no-b-pyramid / bframe-bias=0 / rc-lookahead=60 / lookahead-slices=4 / scenecut=40 / radl=0 / no-intra-refresh / ctu=64 / min-cu-size=8 / rect / amp / max-tu-size=32 / tu-inter-depth=4 / tu-intra-depth=4 / limit-tu=1 / rdoq-level=2 / dynamic-rd=0.00 / no-ssim-rd / signhide / no-tskip / nr-intra=0 / nr-inter=0 / no-constrained-intra / no-strong-intra-smoothing / max-merge=3 / limit-refs=3 / limit-modes / me=3 / subme=7 / merange=57 / temporal-mvp / weightp / weightb / no-analyze-src-pics / deblock=-3:-3 / no-sao / no-sao-non-deblock / rd=6 / no-early-skip / no-rskip / no-fast-intra / no-tskip-fast / no-cu-lossless / b-intra / no-splitrd-skip / rdpenalty=0 / psy-rd=2.50 / psy-rdoq=1.00 / no-rd-refine / no-lossless / cbqpoffs=0 / crqpoffs=0 / rc=crf / crf=18.0 / qcomp=0.60 / qpstep=4 / stats-write=0 / stats-read=0 / vbv-maxrate=50000 / vbv-bufsize=50000 / vbv-init=0.9 / crf-max=0.0 / crf-min=0.0 / ipratio=1.40 / pbratio=1.30 / aq-mode=1 / aq-strength=1.00 / cutree / zone-count=1 / zones: / start-frame=170636 / end-frame=177566 / qp=35 / no-strict-cbr / qg-size=32 / no-rc-grain / qpmax=69 / qpmin=0 / no-const-vbv / sar=1 / overscan=0 / videoformat=5 / range=0 / colorprim=2 / transfer=2 / colormatrix=1 / chromaloc=0 / display-window=0 / max-cll=0,0 / min-luma=0 / max-luma=1023 / log2-max-poc-lsb=8 / vui-timing-info / vui-hrd-info / slices=1 / opt-qp-pps / opt-ref-list-length-pps / no-multi-pass-opt-rps / scenecut-bias=0.05 / no-opt-cu-delta-qp / no-aq-motion / no-hdr / no-hdr-opt / no-dhdr10-opt / analysis-save=(null) / analysis-load=(null) / analysis-reuse-level=5 / scale-factor=0 / refine-intra=0 / refine-inter=0 / refine-mv=0 / no-limit-sao / ctu-info=0 / no-lowpass-dct / refine-mv-type=0 / copy-pic=1
Language : English
Default : Yes
Forced : Yes
Color range : Limited
Matrix coefficients : BT.709

Audio #1
ID : 2
Format : AC-3
Format/Info : Audio Coding 3
Format settings, Endianness : Big
Codec ID : A_AC3
Duration : 2 h 3 min
Bit rate mode : Constant
Bit rate : 448 kb/s
Channel(s) : 6 channels
Channel positions : Front: L C R, Side: L R, LFE
Sampling rate : 48.0 kHz
Frame rate : 31.250 FPS (1536 SPF)
Bit depth : 16 bits
Compression mode : Lossy
Stream size : 395 MiB (9%)
Title : Дубляж (лицензия)
Language : Russian
Service kind : Complete Main
Default : Yes
Forced : No

Audio #2
ID : 3
Format : AC-3
Format/Info : Audio Coding 3
Format settings, Endianness : Big
Codec ID : A_AC3
Duration : 2 h 3 min
Bit rate mode : Constant
Bit rate : 448 kb/s
Channel(s) : 6 channels
Channel positions : Front: L C R, Side: L R, LFE
Sampling rate : 48.0 kHz
Frame rate : 31.250 FPS (1536 SPF)
Bit depth : 16 bits
Compression mode : Lossy
Stream size : 395 MiB (9%)
Title : Оригинал
Language : English
Service kind : Complete Main
Default : No
Forced : No

Text
ID : 4
Format : UTF-8
Codec ID : S_TEXT/UTF8
Codec ID/Info : UTF-8 Plain Text
Duration : 1 h 56 min
Bit rate : 33 b/s
Count of elements : 903
Stream size : 28.6 KiB (0%)
Language : English
Default : Yes
Forced : No

Menu
00:00:00.000 : en:Chapter 1
00:09:13.667 : en:Chapter 2
00:20:16.792 : en:Chapter 3
00:29:12.333 : en:Chapter 4
00:40:32.000 : en:Chapter 5
00:51:51.750 : en:Chapter 6
00:58:04.792 : en:Chapter 7
01:14:19.833 : en:Chapter 8
01:22:25.000 : en:Chapter 9
01:32:37.958 : en:Chapter 10
01:42:29.792 : en:Chapter 11
01:49:55.875 : en:Chapter 12

Скриншоты

Релиз от: от XuMuK


Скачать Seven_Sisters_2017_BDRip_1080p__HEVC__10bit.mkv.torrent

просмотры: 19

Post Comment