Боевик Зарубежные фильмы

Преступник / Criminal (2016) UHD BDRemux 2160p от MediaClub | 4K | HDR | D, A

Информация о фильме
Название: Преступник
Оригинальное название: Criminal
Год выхода: 2016
Жанр: Фантастика, боевик, триллер, драма, криминал, детектив
Режиссер: Ариэль Вромен
В ролях: Кевин Костнер, Гэри Олдман, Томми Ли Джонс, Райан Рейнольдс, Элис Ив, Галь Гадот, Хорди Молья, Майкл Питт, Амори Ноласко, Антье Трауэ, Скотт Эдкинс, Лара Дэкаро, Фредди Бош, Эммануэль Имани, Гарри Хэппл, Даг Кокл, Колин Сэлмон, Стив Николсон

О фильме:
Кевин Костнер и Гари Олдман в остросюжетной криминальной драме Ариэля Вромена. Агенту ЦРУ Биллу Поупу было поручено разыскать в Лондоне хакера, сумевшего взломать код защиты запуска баллистических ракет. Однако операция была сорвана, агент погиб, так и не успев сообщить начальству, где находится хакер. За компьютерным гением теперь охотится не только официальные власти, но и вражеский преступный синдикат, поэтому ЦРУ вынуждено пойти на опасный эксперимент. Для того чтобы добыть нужные сведенья, память Поупа пересаживают в мозг преступника Джерико. Когда-то давно маньяк пережил травму головного мозга, и с тех пор многие человеческие чувства ему просто неведомы. Любовь, сострадание, привязанность – за гранью понимания бандита. Специалисты считают, что операция прошла неудачно, однако, когда Джерико сбегает из тюрьмы, память Билла Поупа постепенно овладевает его сознанием. Осталось лишь тело маньяка. С каждым днем Джерико все больше и больше становится другим человеком, что заставляет совершать несвойственные ему поступки.

Страна: Великобритания, США
Студия: BenderSpink, Campbell Grobman Films, Lionsgate
Продолжительность: 01:53:53
Перевод: Дублированный, авторский

Файл
Кодек: H.265
Качество: UHD BDRemux 2160p
Видео: MPEG-H HEVC HDR, 65.0 Mбит/с, 3840×2160, 23.976 кадр/с
Звук:
1. Русский (AC3, 6 ch, 640 Кбит/с) / дублированный (Blu-ray CEE)
2. Русский (DTS-HD MA, 6 ch, 3659 Кбит/с) / дублированный (Blu-ray EUR)
3. Русский (AC3, 6 ch, 640 Кбит/с) / Авторский (А.Гаврилов)
4. Русский (AC3, 6 ch, 640 Кбит/с) / Авторский (Д.Есарев)
5. Английский (DTS-HD MA, 6 ch, 3608 Кбит/с)
Субтитры: Русские, английские

Семпл

MI
General
Unique ID : 313324535877315104793407413354395385643 (0xEBB81C50008A9AD7DBF357FD2240BF2B)
Complete name : D:uTorrentPrestupnik.2016.2160p.HEVC.UHD.HDR.MediaClub.mkv
Format : Matroska
Format version : Version 4 / Version 2
File size : 58.9 GiB
Duration : 1 h 53 min
Overall bit rate : 74.2 Mb/s
Encoded date : UTC 2018-02-07 09:31:28
Writing application : mkvmerge v19.0.0 ('Brave Captain') 64-bit
Writing library : libebml v1.3.5 + libmatroska v1.4.8
Cover : Yes
Attachments : cover.png

Video
ID : 1
Format : HEVC
Format/Info : High Efficiency Video Coding
Format profile : Main [email protected]@High
Codec ID : V_MPEGH/ISO/HEVC
Duration : 1 h 53 min
Bit rate : 65.0 Mb/s
Width : 3 840 pixels
Height : 2 160 pixels
Display aspect ratio : 16:9
Frame rate mode : Constant
Frame rate : 23.976 (24000/1001) FPS
Color space : YUV
Chroma subsampling : 4:2:0 (Type 2)
Bit depth : 10 bits
Bits/(Pixel*Frame) : 0.327
Stream size : 51.6 GiB (88%)
Title : BDRemux, 20160p, HEVC, UDH, HDR by Silverok
Writing library : ATEME Titan KFE 3.7.3 (4.7.3.1003)
Default : Yes
Forced : No
Color range : Limited
Color primaries : BT.2020
Transfer characteristics : PQ
Matrix coefficients : BT.2020 non-constant
Mastering display color primaries : Display P3
Mastering display luminance : min: 0.0050 cd/m2, max: 1000 cd/m2
Maximum Content Light Level : 1000 cd/m2
Maximum Frame-Average Light Level : 206 cd/m2

Audio #1
ID : 2
Format : AC-3
Format/Info : Audio Coding 3
Codec ID : A_AC3
Duration : 1 h 53 min
Bit rate mode : Constant
Bit rate : 640 kb/s
Channel(s) : 6 channels
Channel positions : Front: L C R, Side: L R, LFE
Sampling rate : 48.0 kHz
Frame rate : 31.250 FPS (1536 SPF)
Bit depth : 16 bits
Compression mode : Lossy
Stream size : 520 MiB (1%)
Title : дублированный (Blu-ray)
Language : Russian
Service kind : Complete Main
Default : Yes
Forced : No

Audio #2
ID : 3
Format : DTS
Format/Info : Digital Theater Systems
Format profile : MA / Core
Codec ID : A_DTS
Duration : 1 h 53 min
Bit rate mode : Variable / Constant
Bit rate : 3 659 kb/s / 1 509 kb/s
Channel(s) : 6 channels
Channel positions : Front: L C R, Side: L R, LFE
Sampling rate : 48.0 kHz
Frame rate : 93.750 FPS (512 SPF)
Bit depth : 24 bits
Compression mode : Lossless / Lossy
Stream size : 2.90 GiB (5%)
Title : дублированный (Blu-ray EUR)
Language : Russian
Default : No
Forced : No

Audio #3
ID : 4
Format : AC-3
Format/Info : Audio Coding 3
Codec ID : A_AC3
Duration : 1 h 53 min
Bit rate mode : Constant
Bit rate : 640 kb/s
Channel(s) : 6 channels
Channel positions : Front: L C R, Side: L R, LFE
Sampling rate : 48.0 kHz
Frame rate : 31.250 FPS (1536 SPF)
Bit depth : 16 bits
Compression mode : Lossy
Stream size : 520 MiB (1%)
Title : Авторский (А.Гаврилов)
Language : Russian
Service kind : Complete Main
Default : No
Forced : No

Audio #4
ID : 5
Format : AC-3
Format/Info : Audio Coding 3
Codec ID : A_AC3
Duration : 1 h 53 min
Bit rate mode : Constant
Bit rate : 640 kb/s
Channel(s) : 6 channels
Channel positions : Front: L C R, Side: L R, LFE
Sampling rate : 48.0 kHz
Frame rate : 31.250 FPS (1536 SPF)
Bit depth : 16 bits
Compression mode : Lossy
Stream size : 520 MiB (1%)
Title : Авторский (Д.Есарев)
Language : Russian
Service kind : Complete Main
Default : No
Forced : No

Audio #5
ID : 6
Format : DTS
Format/Info : Digital Theater Systems
Format profile : MA / Core
Codec ID : A_DTS
Duration : 1 h 53 min
Bit rate mode : Variable / Constant
Bit rate : 3 608 kb/s / 1 509 kb/s
Channel(s) : 6 channels
Channel positions : Front: L C R, Side: L R, LFE
Sampling rate : 48.0 kHz
Frame rate : 93.750 FPS (512 SPF)
Bit depth : 24 bits
Compression mode : Lossless / Lossy
Stream size : 2.86 GiB (5%)
Language : English
Default : No
Forced : No

Text #1
ID : 7
Format : UTF-8
Codec ID : S_TEXT/UTF8
Codec ID/Info : UTF-8 Plain Text
Duration : 1 h 43 min
Bit rate : 58 b/s
Count of elements : 996
Stream size : 44.6 KiB (0%)
Title : полные
Language : Russian
Default : Yes
Forced : No

Text #2
ID : 8
Format : UTF-8
Codec ID : S_TEXT/UTF8
Codec ID/Info : UTF-8 Plain Text
Duration : 1 h 43 min
Bit rate : 41 b/s
Count of elements : 1016
Stream size : 31.5 KiB (0%)
Title : Full
Language : English
Default : No
Forced : No

Menu
00:00:00.000 : en:Chapter 1
00:10:41.265 : en:Chapter 2
00:15:32.264 : en:Chapter 3
00:23:45.340 : en:Chapter 4
00:30:56.562 : en:Chapter 5
00:36:01.367 : en:Chapter 6
00:45:36.316 : en:Chapter 7
00:48:48.508 : en:Chapter 8
00:54:51.454 : en:Chapter 9
01:01:46.244 : en:Chapter 10
01:08:32.608 : en:Chapter 11
01:16:11.608 : en:Chapter 12
01:22:20.143 : en:Chapter 13
01:29:52.011 : en:Chapter 14
01:36:46.091 : en:Chapter 15
01:42:08.497 : en:Chapter 16
01:53:34.599 : en:Chapter 17

Скриншоты

Релиз от: | Silverok


Скачать Prestupnik.2016.2160p.HEVC.UHD.HDR.MediaClub.mk.torrent

просмотры: 29

Post Comment