Вестерн Зарубежные фильмы

Великолепная семерка / The Magnificent Seven (2016) UHD BDRemux 2160p от ExKinoRay | 4K | HDR | D, A | Лицензия

Информация о фильме
Название: Великолепная семёрка
Оригинальное название: The Magnificent Seven
Год выхода: 2016
Жанр: Боевик, вестерн, приключения
Режиссер: Антуан Фукуа
В ролях: Дензел Вашингтон, Крис Прэтт, Итэн Хоук, Винсент Д`Онофрио, Ли Бён-хон, Мануэль Рульфо, Мартин Сенсмейер, Хейли Беннетт, Питер Сарсгаард, Люк Граймс

О фильме:
Злобный эксплуататор трудового народа нещадно третирует рабочий класс, прикрываясь армией наемников. Местный шериф бездействует и желает всем счастья, хорошего настроения и здоровья. Тогда жители близлежащих спальных районов скидываются и нанимают черного человека для черной работы. Тот, в свою очередь, собирает банду агрессивно настроенных организмов и все вместе они устраивают злобному эксплуататору и его многочисленным приспешникам массовый геноцид во имя высшей справедливости.

Страна: США
Студия: Columbia Pictures, Escape Artists, LStar Capital
Продолжительность: 02:12:49
Перевод(ы):
#1: Дублированный | Лицензия Blu-Ray CEE
#2: Авторский | Есарев
#3: Авторский | Сербин
#4: Авторский | Горчаков
#5: Авторский | Гаврилов

Файл
Качество: BDRemux 2160p
Видео: MPEG-H HEVC HDR Video, 3840×2160, 44.9 Mbit/s, 23.976 fps
Звук:
Аудио #01: 48 kHz, AC3, 5.1, 384 Kbps | Дублированный |
Аудио #02: 48 kHz, DTS-HD MA, 7.1, 2718 kbps | Авторский |
Аудио #03: 48 kHz, DTS-HD MA, 7.1, 2616 kbps | Авторский |
Аудио #04: 48 kHz, DTS-HD MA, 7.1, 2716 kbps | Авторский |
Аудио #05: 48 kHz, AC3, 5.1, 448 Kbps | Авторский |
Аудио #06: 48 kHz, TrueHD, 7.1, 4699 kbps | Оригинал |
Аудио #07: 48 kHz, AC3, 5.1, 640 kbps | Оригинал |
Субтитры: Русские (forced, full), английские

MI
General
Unique ID : 190225756584344036703906594191469472490 (0x8F1C25E89150D677AFEE9979B4146AEA)
Complete name : G:VideoSSDThe.Magnificent.Seven.2016.BDREMUX.2160p.4K.UltraHD.HEVC.HDR.ExKinoRay.mkv
Format : Matroska
Format version : Version 4 / Version 2
File size : 54.9 GiB
Duration : 2 h 12 min
Overall bit rate mode : Variable
Overall bit rate : 59.2 Mb/s
Movie name : The Magnificent Seven 2016 from ExKinoRay
Encoded date : UTC 2017-12-16 20:43:39
Writing application : mkvmerge v18.0.0 ('Apricity') 64-bit
Writing library : libebml v1.3.5 + libmatroska v1.4.8

Video
ID : 1
Format : HEVC
Format/Info : High Efficiency Video Coding
Format profile : Main [email protected]@High
Codec ID : V_MPEGH/ISO/HEVC
Duration : 2 h 12 min
Bit rate : 44.9 Mb/s
Width : 3 840 pixels
Height : 2 160 pixels
Display aspect ratio : 16:9
Frame rate mode : Constant
Frame rate : 23.976 (24000/1001) FPS
Color space : YUV
Chroma subsampling : 4:2:0 (Type 2)
Bit depth : 10 bits
Bits/(Pixel*Frame) : 0.226
Stream size : 41.6 GiB (76%)
Language : English
Default : Yes
Forced : No
Color range : Limited
Color primaries : BT.2020
Transfer characteristics : PQ
Matrix coefficients : BT.2020 non-constant
Mastering display color pri : R: x=0.680000 y=0.320000, G: x=0.265000 y=0.690000, B: x=0.150000 y=0.060000, White point: x=0.312700 y=0.329000
Mastering display luminance : min: 0.0050 cd/m2, max: 4000.0000 cd/m2
Maximum Content Light Level : 6968 cd/m2
Maximum Frame-Average Light : 428 cd/m2

Audio #1
ID : 2
Format : AC-3
Format/Info : Audio Coding 3
Format settings, Endianness : Big
Codec ID : A_AC3
Duration : 2 h 12 min
Bit rate mode : Constant
Bit rate : 384 kb/s
Channel(s) : 6 channels
Channel positions : Front: L C R, Side: L R, LFE
Sampling rate : 48.0 kHz
Frame rate : 31.250 FPS (1536 SPF)
Bit depth : 16 bits
Compression mode : Lossy
Stream size : 365 MiB (1%)
Title : Dub [License]
Language : Russian
Service kind : Complete Main
Default : Yes
Forced : No

Audio #2
ID : 3
Format : DTS
Format/Info : Digital Theater Systems
Format profile : MA / Core
Mode : 16
Format settings, Endianness : Big
Codec ID : A_DTS
Duration : 2 h 12 min
Bit rate mode : Variable / Constant
Bit rate : 2 718 kb/s / 1 509 kb/s
Channel(s) : 8 channels / 6 channels
Channel positions : Front: L C R, Side: L R, Back: L R, LFE / Front: L C R, Side: L R, LFE
Sampling rate : 48.0 kHz
Frame rate : 93.750 FPS (512 SPF)
Bit depth : 16 bits
Compression mode : Lossless / Lossy
Stream size : 2.52 GiB (5%)
Title : AVO [Yesarev]
Language : Russian
Default : No
Forced : No

Audio #3
ID : 4
Format : DTS
Format/Info : Digital Theater Systems
Format profile : MA / Core
Mode : 16
Format settings, Endianness : Big
Codec ID : A_DTS
Duration : 2 h 12 min
Bit rate mode : Variable / Constant
Bit rate : 2 616 kb/s / 1 509 kb/s
Channel(s) : 8 channels / 6 channels
Channel positions : Front: L C R, Side: L R, Back: L R, LFE / Front: L C R, Side: L R, LFE
Sampling rate : 48.0 kHz
Frame rate : 93.750 FPS (512 SPF)
Bit depth : 16 bits
Compression mode : Lossless / Lossy
Stream size : 2.43 GiB (4%)
Title : AVO [Serbin]
Language : Russian
Default : No
Forced : No

Audio #4
ID : 5
Format : DTS
Format/Info : Digital Theater Systems
Format profile : MA / Core
Mode : 16
Format settings, Endianness : Big
Codec ID : A_DTS
Duration : 2 h 12 min
Bit rate mode : Variable / Constant
Bit rate : 2 716 kb/s / 1 509 kb/s
Channel(s) : 8 channels / 6 channels
Channel positions : Front: L C R, Side: L R, Back: L R, LFE / Front: L C R, Side: L R, LFE
Sampling rate : 48.0 kHz
Frame rate : 93.750 FPS (512 SPF)
Bit depth : 16 bits
Compression mode : Lossless / Lossy
Stream size : 2.52 GiB (5%)
Title : AVO [Gorchakov]
Language : Russian
Default : No
Forced : No

Audio #5
ID : 6
Format : AC-3
Format/Info : Audio Coding 3
Format settings, Endianness : Big
Codec ID : A_AC3
Duration : 2 h 12 min
Bit rate mode : Constant
Bit rate : 448 kb/s
Channel(s) : 6 channels
Channel positions : Front: L C R, Side: L R, LFE
Sampling rate : 48.0 kHz
Frame rate : 31.250 FPS (1536 SPF)
Bit depth : 16 bits
Compression mode : Lossy
Stream size : 426 MiB (1%)
Title : AVO [Gavrilov]
Language : Russian
Service kind : Complete Main
Default : No
Forced : No

Audio #6
ID : 7
Format : TrueHD
Format profile : TrueHD+Atmos / TrueHD
Codec ID : A_TRUEHD
Duration : 2 h 12 min
Bit rate mode : Variable
Bit rate : 4 699 kb/s
Maximum bit rate : 7 968 kb/s
Channel(s) : Object Based / 8 channels
Channel positions : Object Based / Front: L C R, Side: L R, Back: L R, LFE
Sampling rate : / 48.0 kHz
Frame rate : 1 200.000 FPS (40 SPF)
Compression mode : Lossless
Stream size : 4.36 GiB (8%)
Title : Original
Language : English
Default : No
Forced : No

Audio #7
ID : 8
Format : AC-3
Format/Info : Audio Coding 3
Format settings, Endianness : Big
Codec ID : A_AC3
Duration : 2 h 12 min
Bit rate mode : Constant
Bit rate : 640 kb/s
Channel(s) : 6 channels
Channel positions : Front: L C R, Side: L R, LFE
Sampling rate : 48.0 kHz
Frame rate : 31.250 FPS (1536 SPF)
Bit depth : 16 bits
Compression mode : Lossy
Stream size : 608 MiB (1%)
Language : English
Service kind : Complete Main
Default : No
Forced : No

Text #1
ID : 9
Format : UTF-8
Codec ID : S_TEXT/UTF8
Codec ID/Info : UTF-8 Plain Text
Duration : 2 h 6 min
Bit rate : 0 b/s
Count of elements : 18
Stream size : 535 Bytes (0%)
Title : Forced
Language : Russian
Default : Yes
Forced : No

Text #2
ID : 10
Format : UTF-8
Codec ID : S_TEXT/UTF8
Codec ID/Info : UTF-8 Plain Text
Duration : 2 h 7 min
Bit rate : 74 b/s
Count of elements : 1494
Stream size : 68.9 KiB (0%)
Title : Full
Language : Russian
Default : No
Forced : No

Text #3
ID : 11
Format : UTF-8
Codec ID : S_TEXT/UTF8
Codec ID/Info : UTF-8 Plain Text
Duration : 2 h 6 min
Bit rate : 48 b/s
Count of elements : 1525
Stream size : 45.2 KiB (0%)
Title : Full
Language : English
Default : No
Forced : No

Text #4
ID : 12
Format : UTF-8
Codec ID : S_TEXT/UTF8
Codec ID/Info : UTF-8 Plain Text
Duration : 2 h 6 min
Bit rate : 58 b/s
Count of elements : 1835
Stream size : 54.0 KiB (0%)
Title : SDH
Language : English
Default : No
Forced : No

Menu
00:00:00.000 : en:Chapter 1
00:04:53.710 : en:Chapter 2
00:11:28.187 : en:Chapter 3
00:18:12.591 : en:Chapter 4
00:25:17.849 : en:Chapter 5
00:31:55.955 : en:Chapter 6
00:36:53.794 : en:Chapter 7
00:42:05.856 : en:Chapter 8
00:50:23.520 : en:Chapter 9
00:59:57.844 : en:Chapter 10
01:06:49.630 : en:Chapter 11
01:16:08.438 : en:Chapter 12
01:23:25.792 : en:Chapter 13
01:34:06.766 : en:Chapter 14
01:44:19.711 : en:Chapter 15
01:54:47.296 : en:Chapter 16

Релиз от: Автор релиза:
Подпишись на меня, кликни по картинке > :


Скачать The.Magnificent.Seven.2016.BDREMUX.2160p.4K.Ult.torrent

просмотры: 7

Post Comment