Мультипликация

Стань легендой! Бигфут Младший / The Son of Bigfoot (2017) BDRip-AVC от New-Team | Лицензия



Группа New-Team ВКонтакте
Подписывайтесь так же на мою группу ВКонтакте stalkerok | AVC рипы
Ссылка в группе New-Team
Присоединяйтесь!


Стань легендой! Бигфут Младший
The Son of Bigfoot


Страна: Франция, Бельгия
Жанр: мультфильм, фэнтези, комедия, семейный
Год выпуска: 2017
Продолжительность: 01:31:15

Перевод: Профессиональный (полное дублирование) [Blu-ray RUS]
Субтитры: нет
Оригинальная аудиодорожка: нет

Режиссер: Жереми Дегрусон / Jeremy Degruson, Бен Стассен / Ben Stassen

В ролях: Синда Адамс, Джордж Бэббит, Лайла Берзиньш, Джои Камен, Джефф Дусетте, Дэвид Эпштейн, Паппи Фолкнер, Сэнди Фокс, Кайл Хеберт, Мариев Херингтон, Алексис Лэнг, Юрий Ловенталь

Описание:
Обычный подросток по имени Адам отправляется на поиски своего давно пропавшего отца и попадает в приключение мифических масштабов. Его мир переворачивается вверх дном, когда оказывается, что в нем течет кровь последних легендарных хранителей леса — бигфутов. Теперь ему открыты такие способности как суперскорость, живительное прикосновение и возможность понимать язык животных.

Релиз:

Автор рипа: stalkerok

Сэмпл

Качество видео: BDRip-AVC [The Son of Bigfoot (2017) Blu-ray Disc [RUS] -BLUEBIRD]
Формат видео: MKV
Видео кодек: AVC
Аудио кодек: AC3
Видео: 1808 Кбит/сек, 960×402 (2.40:1), 24 кадр/сек, AVC
Аудио: русский, 448 Кбит/сек, 48 КГц, 5.1, AC3
Навигация по главам: есть

Сравнение Blu-ray (16:9) vs Blu-ray RUS (2.40:1)

Blu-ray (16:9)

Blu-ray RUS (2.40:1)

x264/MediaInfo

—[Information] [22.01.2018 18:41:09] x264 [info]: frame I:1262 Avg QP:16.98 size: 73033
—[Information] [22.01.2018 18:41:09] x264 [info]: frame P:34881 Avg QP:19.12 size: 17869
—[Information] [22.01.2018 18:41:09] x264 [info]: frame B:95264 Avg QP:21.66 size: 5484

General
Unique ID : 248219855158470070475159481299888150696 (0xBABD67BA256F1448B6DC0F1EB07298A8)
Complete name : M:$newThe Son of Bigfoot (2017)The.Son.of.Bigfoot.2017.BDRip-AVC.RUS.stalkerok.new-team.mkv
Format : Matroska
Format version : Version 4 / Version 2
File size : 1.44 GiB
Duration : 1 h 31 min
Overall bit rate : 2 258 kb/s
Movie name : The Son of Bigfoot (2017) (Rip by stalkerok)
Encoded date : UTC 2018-01-22 15:47:07
Writing application : mkvmerge v8.6.1 ('Flying') 64bit
Writing library : libebml v1.3.3 + libmatroska v1.4.4

Video
ID : 1
Format : AVC
Format/Info : Advanced Video Codec
Format profile : [email protected]
Format settings, CABAC : Yes
Format settings, ReFrames : 14 frames
Codec ID : V_MPEG4/ISO/AVC
Duration : 1 h 31 min
Bit rate : 1 809 kb/s
Width : 960 pixels
Height : 402 pixels
Display aspect ratio : 2.40:1
Frame rate mode : Constant
Frame rate : 24.000 FPS
Color space : YUV
Chroma subsampling : 4:2:0
Bit depth : 8 bits
Scan type : Progressive
Bits/(Pixel*Frame) : 0.195
Stream size : 1.15 GiB (80%)
Title : The Son of Bigfoot (2017) (Rip by stalkerok)
Writing library : x264 core 152 r2851kMod ba24899
Encoding settings : cabac=1 / ref=14 / deblock=1:-3:-2 / analyse=0x3:0x133 / me=umh / subme=11 / psy=1 / fade_compensate=0.00 / psy_rd=1.00:0.00 / mixed_ref=1 / me_range=32 / chroma_me=1 / trellis=2 / 8x8dct=1 / cqm=0 / deadzone=21,11 / fast_pskip=0 / chroma_qp_offset=-2 / threads=12 / lookahead_threads=3 / sliced_threads=0 / nr=0 / decimate=1 / interlaced=0 / bluray_compat=0 / constrained_intra=0 / bframes=14 / b_pyramid=2 / b_adapt=2 / b_bias=0 / direct=3 / weightb=1 / open_gop=0 / weightp=2 / keyint=240 / keyint_min=23 / scenecut=40 / intra_refresh=0 / rc_lookahead=60 / rc=crf / mbtree=0 / crf=17.8000 / qcomp=0.65 / qpmin=0 / qpmax=69 / qpstep=4 / vbv_maxrate=50000 / vbv_bufsize=62500 / crf_max=0.0 / nal_hrd=none / filler=0 / ip_ratio=1.40 / pb_ratio=1.30 / aq=3:0.90 / zones=127983,131406,q=35
Default : Yes
Forced : No

Audio
ID : 2
Format : AC-3
Format/Info : Audio Coding 3
Mode extension : CM (complete main)
Format settings, Endianness : Big
Codec ID : A_AC3
Duration : 1 h 31 min
Bit rate mode : Constant
Bit rate : 448 kb/s
Channel(s) : 6 channels
Channel positions : Front: L C R, Side: L R, LFE
Sampling rate : 48.0 kHz
Frame rate : 31.250 FPS (1536 spf)
Compression mode : Lossy
Stream size : 292 MiB (20%)
Language : Russian
Default : Yes
Forced : No

Menu
00:00:00.000 : en:Chapter 1
00:00:25.708 : en:Chapter 2
00:09:52.250 : en:Chapter 3
00:20:05.625 : en:Chapter 4
00:31:35.750 : en:Chapter 5
00:42:31.458 : en:Chapter 6
00:55:00.166 : en:Chapter 7
01:03:24.041 : en:Chapter 8
01:16:09.833 : en:Chapter 9



Скачать The.Son.of.Bigfoot.2017.BDRip-AVC.RUS.stalkerok.torrent

просмотры: 0

Post Comment