Зарубежные фильмы Криминал

Пила 8 / Jigsaw (2017) BDRemux 2160p | 4K | HDR | D, A | iTunes

Информация о фильме
Название: Пила 8
Оригинальное название: Jigsaw
Год выхода: 2017
Жанр: Ужасы, триллер, криминал, детектив
Режиссер: Майкл Спириг, Питер Спириг
В ролях: Мэтт Пассмор, Тобин Белл, Каллум Кит Ренни, Ханна Андерсон, Кле Беннетт, Лора Вандервурт, Пол Браунштейн, Мандела Ван Пиблз, Бриттани Аллен, Джозиа Блэк, Эдвард Раттл, Майкл Бойсверт, Сэм Коулес, Трой Фельдман, Шаквен Льюис

О фильме:
В городе обнаруживают несколько тел, обладатели которых встретили определённо не лучший конец. Все улики указывают на одного человека: Джона Крамера. Но как это возможно? Человек, известный как "Пила", мёртв уже более десяти лет. Неужели всё-таки нашёлся тот, кто рискнул подобрать мантию жестокого маньяка?…


Страна: США
Студия: Serendipity Productions, Twisted Pictures, A Bigger Boat
Продолжительность: 01:31:57
Перевод: Дублированный, авторский (А. Дольский)

Файл
Кодек: HEVC, HDR
Качество: Blu-Ray Remux (2160p)
Видео: 72,0 Мбит/с, 3840×2160, 23.976 Кадр/с
Звук:
Аудио #01: AC3, 6 ch, 384 kbps (Русский — Дублированный ''iTunes'')
Аудио #02: DTS, 6 ch, 1509 kbps (Русский — Авторский, А. Дольский)
Аудио #03: AC3, 2 ch, 192 kbps (Украинский — Дублированный, Line )
Аудио #04: TrueHD, 8 ch, 3817 kbps (Английский) | Original |
Аудио #05: AC3, 6 ch, 640 kbps (Английский) | Original, AC3 CORE |
Аудио #06: AC3, 2 ch, 224 kbps (Английский) | Original |
Аудио #07: AC3, 2 ch, 224 kbps (Английский — Audiodeion)
Аудио #08: AC3, 2 ch, 224 kbps (Английский — Комментарии ''Марк Бёрг, Орен Каулз, Питер Блок'')
Субтитры: Субтитры: Русские (полные, содержится не нормативная лексика), Английские (полные)

Семпл
Mediainfo
Диск на blu-ray.com

Скриншоты

MI
Общее
Уникальный идентификатор : 95946572217826438171623481160269021739 (0x482EA33D0070FAED36A45B00B187C22B)
Полное имя : L:Jigsaw.2017.2160p.BluRay.REMUX.HEVC.HDR.AC3.TrueHD.7.1.Atmos.IVA(2xRUS.UKR.ENG).mkv
Формат : Matroska
Версия формата : Version 4 / Version 2
Размер файла : 51,0 Гбайт
Продолжительность : 1 ч. 32 м.
Режим общего битрейта : Переменный
Общий поток : 79,3 Мбит/сек
Название фильма : Jigsaw.2017.2160p.BluRay.REMUX.HEVC.HDR.AC3.TrueHD.7.1.Atmos.IVA(2xRUS.UKR.ENG)
Дата кодирования : UTC 2018-02-05 21:38:27
Программа кодирования : mkvmerge v19.0.0 ('Brave Captain') 64-bit
Библиотека кодирования : libebml v1.3.5 + libmatroska v1.4.8
Обложка : Yes

Видео
Идентификатор : 1
Формат : HEVC
Формат/Информация : High Efficiency Video Coding
Профиль формата : Main [email protected]@High
Идентификатор кодека : V_MPEGH/ISO/HEVC
Продолжительность : 1 ч. 31 м.
Битрейт : 72,0 Мбит/сек
Ширина : 3840 пикселей
Высота : 2160 пикселей
Соотношение сторон : 16:9
Режим частоты кадров : Постоянный
Частота кадров : 23,976 (24000/1001) кадра/сек
Цветовое пространство : YUV
Субдискретизация насыщенности : 4:2:0 (Type 2)
Битовая глубина : 10 бит
Бит/(Пиксели*Кадры) : 0.362
Размер потока : 46,3 Гбайт (91%)
Заголовок : Jigsaw.2017.2160p.BluRay.HEVC.HDR
Default : Да
Forced : Нет
Цветовой диапазон : Limited
Основные цвета : BT.2020
Характеристики трансфера : PQ
Коэффициенты матрицы : BT.2020 non-constant
MasteringDisplay_ColorPrimaries : Display P3
MasteringDisplay_Luminance : min: 0.0050 cd/m2, max: 1000 cd/m2
MaxCLL : 1000 cd/m2
MaxFALL : 390 cd/m2

Аудио #1
Идентификатор : 2
Формат : AC-3
Формат/Информация : Audio Coding 3
Идентификатор кодека : A_AC3
Продолжительность : 1 ч. 31 м.
Вид битрейта : Постоянный
Битрейт : 384 Кбит/сек
Каналы : 6 каналов
Расположение каналов : Front: L C R, Side: L R, LFE
Частота : 48,0 КГц
Частота кадров : 31,250 кадров/сек (1536 SPF)
Битовая глубина : 16 бит
Метод сжатия : С потерями
Размер потока : 253 Мбайт (0%)
Заголовок : | Дублированный, iTunes |
Язык : Russian
ServiceKind/String : Complete Main
Default : Да
Forced : Нет

Аудио #2
Идентификатор : 3
Формат : DTS
Формат/Информация : Digital Theater Systems
Идентификатор кодека : A_DTS
Продолжительность : 1 ч. 31 м.
Вид битрейта : Постоянный
Битрейт : 1509 Кбит/сек
Каналы : 6 каналов
Расположение каналов : Front: L C R, Side: L R, LFE
Частота : 48,0 КГц
Частота кадров : 93,750 кадра/сек (512 SPF)
Битовая глубина : 24 бит
Метод сжатия : С потерями
Размер потока : 992 Мбайт (2%)
Заголовок : | Авторский, А. Дольский |
Язык : Russian
Default : Нет
Forced : Нет

Аудио #3
Идентификатор : 4
Формат : AC-3
Формат/Информация : Audio Coding 3
Идентификатор кодека : A_AC3
Продолжительность : 1 ч. 32 м.
Вид битрейта : Постоянный
Битрейт : 192 Кбит/сек
Каналы : 2 канала
Расположение каналов : Front: L R
Частота : 48,0 КГц
Частота кадров : 31,250 кадров/сек (1536 SPF)
Битовая глубина : 16 бит
Метод сжатия : С потерями
Размер потока : 126 Мбайт (0%)
Заголовок : | Дублированный, UKR |
Язык : Ukrainian
ServiceKind/String : Complete Main
Default : Нет
Forced : Нет

Аудио #4
Идентификатор : 5
Формат : TrueHD
Профиль формата : TrueHD+Atmos / TrueHD
Идентификатор кодека : A_TRUEHD
Продолжительность : 1 ч. 31 м.
Вид битрейта : Переменный
Битрейт : 3853 Кбит/сек
Максимальный битрейт : 3171 Кбит/сек
Каналы : Object Based / 8 каналов
Расположение каналов : Object Based / Front: L C R, Side: L R, Back: L R, LFE
Частота : / 48,0 КГц
Частота кадров : 1200,000 кадров/сек (40 SPF)
Метод сжатия : Без потерь
Размер потока : 2,47 Гбайт (5%)
Заголовок : | Original |
Язык : English
Default : Нет
Forced : Нет

Аудио #5
Идентификатор : 6
Формат : AC-3
Формат/Информация : Audio Coding 3
Идентификатор кодека : A_AC3
Продолжительность : 1 ч. 31 м.
Вид битрейта : Постоянный
Битрейт : 640 Кбит/сек
Каналы : 6 каналов
Расположение каналов : Front: L C R, Side: L R, LFE
Частота : 48,0 КГц
Частота кадров : 31,250 кадров/сек (1536 SPF)
Битовая глубина : 16 бит
Метод сжатия : С потерями
Размер потока : 421 Мбайт (1%)
Заголовок : | Original, AC3 CORE |
Язык : English
ServiceKind/String : Complete Main
Default : Нет
Forced : Нет

Аудио #6
Идентификатор : 7
Формат : AC-3
Формат/Информация : Audio Coding 3
Идентификатор кодека : A_AC3
Продолжительность : 1 ч. 31 м.
Вид битрейта : Постоянный
Битрейт : 224 Кбит/сек
Каналы : 2 канала
Расположение каналов : Front: L R
Частота : 48,0 КГц
Частота кадров : 31,250 кадров/сек (1536 SPF)
Битовая глубина : 16 бит
Метод сжатия : С потерями
Размер потока : 147 Мбайт (0%)
Заголовок : | Original, 2.0 |
Язык : English
ServiceKind/String : Complete Main
Default : Нет
Forced : Нет

Аудио #7
Идентификатор : 8
Формат : AC-3
Формат/Информация : Audio Coding 3
Идентификатор кодека : A_AC3
Продолжительность : 1 ч. 31 м.
Вид битрейта : Постоянный
Битрейт : 224 Кбит/сек
Каналы : 2 канала
Расположение каналов : Front: L R
Частота : 48,0 КГц
Частота кадров : 31,250 кадров/сек (1536 SPF)
Битовая глубина : 16 бит
Метод сжатия : С потерями
Размер потока : 147 Мбайт (0%)
Заголовок : | Audiodeion |
Язык : English
ServiceKind/String : Complete Main
Default : Нет
Forced : Нет

Аудио #8
Идентификатор : 9
Формат : AC-3
Формат/Информация : Audio Coding 3
Идентификатор кодека : A_AC3
Продолжительность : 1 ч. 31 м.
Вид битрейта : Постоянный
Битрейт : 224 Кбит/сек
Каналы : 2 канала
Расположение каналов : Front: L R
Частота : 48,0 КГц
Частота кадров : 31,250 кадров/сек (1536 SPF)
Битовая глубина : 16 бит
Метод сжатия : С потерями
Размер потока : 147 Мбайт (0%)
Заголовок : | Commentary |
Язык : English
ServiceKind/String : Complete Main
Default : Нет
Forced : Нет

Текст #1
Идентификатор : 10
Формат : UTF-8
Идентификатор кодека : S_TEXT/UTF8
Идентификатор кодека/Информация : UTF-8 Plain Text
Продолжительность : 1 ч. 24 м.
Битрейт : 85 бит/сек
ElementCount : 1142
Размер потока : 52,9 Кбайт (0%)
Заголовок : Full
Язык : Russian
Default : Нет
Forced : Нет

Текст #2
Идентификатор : 11
Формат : UTF-8
Идентификатор кодека : S_TEXT/UTF8
Идентификатор кодека/Информация : UTF-8 Plain Text
Продолжительность : 1 ч. 24 м.
Битрейт : 57 бит/сек
ElementCount : 1193
Размер потока : 35,1 Кбайт (0%)
Заголовок : Full
Язык : English
Default : Нет
Forced : Нет

Меню
00:00:00.000 : en:Chapter 1
00:03:46.976 : en:Chapter 2
00:10:39.847 : en:Chapter 3
00:14:09.974 : en:Chapter 4
00:22:39.608 : en:Chapter 5
00:29:03.408 : en:Chapter 6
00:35:18.533 : en:Chapter 7
00:40:38.519 : en:Chapter 8
00:43:09.211 : en:Chapter 9
00:46:12.352 : en:Chapter 10
00:52:00.742 : en:Chapter 11
00:56:34.224 : en:Chapter 12
01:04:13.849 : en:Chapter 13
01:09:17.570 : en:Chapter 14
01:13:33.283 : en:Chapter 15
01:23:31.089 : en:Chapter 16


Скачать Jigsaw.2017.2160p.BluRay.REMUX.HEVC.HDR.AC3.Tru.torrent

просмотры: 10

Post Comment