Боевик Зарубежные фильмы

Несчастный случай / Accident Man (2018) BDRemux 1080p | Лицензия

Информация о фильме
Название: Несчастный случай
Оригинальное название: Accident Man
Год выхода: 2018
Жанр: Боевик, триллер, криминал
Режиссер: Джесси Джонсон
В ролях: Скотт Эдкинс, Рэй Стивенсон, Эшли Грин, Дэвид Пэймер, Майкл Джей Уайт, Рэй Парк, Эми Джонстон, Перри Бенсон, Ник Моран, Росс О'Хеннесси

О фильме:
Майк Фэллон известен тем, что превращает все свои убийства в несчастный случай. Но его отношение к делу полностью меняется, когда умирает его бывшая девушка.

Страна: Великобритания
Студия: Kritzer Levine Wilkins Griffin Entertainment, Six Demon Films
Продолжительность: 01:45:29
Перевод: Профессиональный (многоголосый, закадровый) | Blu-ray EUR

Файл
Качество: BDRemux 1080p
Формат: MKV
Видео: AVC/H.264, 1920×1080 (16:9), 23.976 fps, 27.9 Mbps (0.561 bit/pixel)
Аудио #1: AC-3, 48.0 KHz, 6 ch, 640 Kbps, CBR (Russian)
Аудио #2: DTS MA / Core, 48.0 KHz, 6 ch, 3 840 Kbps / 1 510 Kbps, VBR (English)
Аудио #3: AC-3, 48.0 KHz, 6 ch, 640 Kbps, CBR (English)
Субтитры: Русские, Английские

Знаете ли вы что…
Фильм снят по мотивам одноименного графического романа Пэта Миллза и Тони Скиннера.
M/I
General
Complete name : Accident.Man.2018.BDRemux.1080p.NNMClub.mkv
Format : Matroska
Format version : Version 4 / Version 2
File size : 24.3 GiB
Duration : 1 h 45 min
Overall bit rate mode : Variable
Overall bit rate : 33.0 Mb/s
Encoded date : UTC 2018-02-07 16:42:53
Writing application : mkvmerge v20.0.0 ('I Am The Sun') 64-bit
Writing library : libebml v1.3.5 + libmatroska v1.4.8

Video
ID : 1
Format : AVC
Format/Info : Advanced Video Codec
Format profile : [email protected]
Format settings : CABAC / 2 Ref Frames
Format settings, CABAC : Yes
Format settings, ReFrames : 2 frames
Codec ID : V_MPEG4/ISO/AVC
Duration : 1 h 45 min
Bit rate mode : Variable
Bit rate : 27.9 Mb/s
Width : 1 920 pixels
Height : 1 080 pixels
Display aspect ratio : 16:9
Frame rate mode : Constant
Frame rate : 23.976 (24000/1001) FPS
Color space : YUV
Chroma subsampling : 4:2:0
Bit depth : 8 bits
Scan type : Progressive
Bits/(Pixel*Frame) : 0.561
Stream size : 20.6 GiB (85%)
Language : English
Default : Yes
Forced : No

Audio #1
ID : 2
Format : AC-3
Format/Info : Audio Coding 3
Codec ID : A_AC3
Duration : 1 h 45 min
Bit rate mode : Constant
Bit rate : 640 kb/s
Channel(s) : 6 channels
Channel positions : Front: L C R, Side: L R, LFE
Sampling rate : 48.0 kHz
Frame rate : 31.250 FPS (1536 SPF)
Bit depth : 16 bits
Compression mode : Lossy
Stream size : 483 MiB (2%)
Title : MVO-BD EUR
Language : Russian
Service kind : Complete Main
Default : Yes
Forced : No

Audio #2
ID : 3
Format : DTS
Format/Info : Digital Theater Systems
Format profile : MA / Core
Codec ID : A_DTS
Duration : 1 h 45 min
Bit rate mode : Variable / Constant
Bit rate : 3 840 kb/s / 1 509 kb/s
Channel(s) : 6 channels
Channel positions : Front: L C R, Side: L R, LFE
Sampling rate : 48.0 kHz
Frame rate : 93.750 FPS (512 SPF)
Bit depth : 24 bits
Compression mode : Lossless / Lossy
Stream size : 2.78 GiB (11%)
Language : English
Default : No
Forced : No

Audio #3
ID : 4
Format : AC-3
Format/Info : Audio Coding 3
Codec ID : A_AC3
Duration : 1 h 45 min
Bit rate mode : Constant
Bit rate : 640 kb/s
Channel(s) : 6 channels
Channel positions : Front: L C R, Side: L R, LFE
Sampling rate : 48.0 kHz
Frame rate : 31.250 FPS (1536 SPF)
Bit depth : 16 bits
Compression mode : Lossy
Stream size : 483 MiB (2%)
Language : English
Service kind : Complete Main
Default : No
Forced : No

Text #1
ID : 5
Format : PGS
Muxing mode : zlib
Codec ID : S_HDMV/PGS
Codec ID/Info : Picture based subtitle format used on BDs/HD-DVDs
Duration : 1 h 44 min
Bit rate : 31.5 kb/s
Count of elements : 2768
Stream size : 23.5 MiB (0%)
Language : Russian
Default : No
Forced : No

Text #2
ID : 6
Format : PGS
Muxing mode : zlib
Codec ID : S_HDMV/PGS
Codec ID/Info : Picture based subtitle format used on BDs/HD-DVDs
Duration : 1 h 43 min
Bit rate : 42.3 kb/s
Count of elements : 3054
Stream size : 31.2 MiB (0%)
Language : English
Default : No
Forced : No

Menu
00:00:00.000 : en:00:00:00.000
00:06:02.153 : en:00:06:02.153
00:15:28.845 : en:00:15:28.845
00:17:56.367 : en:00:17:56.367
00:21:30.456 : en:00:21:30.456
00:28:05.559 : en:00:28:05.559
00:33:13.158 : en:00:33:13.158
00:42:36.554 : en:00:42:36.554
00:46:16.273 : en:00:46:16.273
00:53:10.729 : en:00:53:10.729
00:58:43.145 : en:00:58:43.145
01:05:58.872 : en:01:05:58.872
01:11:50.306 : en:01:11:50.306
01:15:08.379 : en:01:15:08.379
01:26:46.201 : en:01:26:46.201
01:33:46.204 : en:01:33:46.204
Скриншоты


Скачать Accident.Man.2018.BDRemux.1080p.mkv.torrent

просмотры: 22

Post Comment