Драма Зарубежные фильмы

Свой человек / The Insider (1999) BDRip-AVC от R.G.Resident | P, A


Информация о фильме
Название: Свой человек
Оригинальное название: The Insider
Год выпуска: 1999
Страна: США
Жанр: триллер, драма, биография


Перевод: Профессиональный (многоголосый закадровый), авторский (одноголосый закадровый)
Субтитры: русские (full), английские (full)
Продолжительность: 02:37:47


Режиссер: Майкл Манн
В ролях:

Аль Пачино (Lowell Bergman), Рассел Кроу (Jeffrey Wigand), Кристофер Пламмер (Mike Wallace), Дайан Венора (Liane Wigand), Филип Бейкер Холл (Don Hewitt), Линдси Краус (Sharon Tiller), Деби Мейзар (Debbie De Luca), Стивен Тоболовски (Eric Kluster), Колм Фиор (Richard Scruggs), Брюс МакГилл (Ron Motley), Джина Гершон (Helen Caperelli), Майкл Гэмбон (Thomas Sandefur)


Описание:
Джеффри Уайгэнда увольняют с поста вице-президента крупнейшей табачной компании за то, что он протестует против использования в табачной продукции компонента, вызывающего у курильщиков наркотическую зависимость. Лоуэлл Бергман, продюсер популярного телешоу, узнает об этом и убеждает Уайгэнда выступить с разоблачительным интервью по телевидению…


Рейтинг:

MPAA: R — Лицам до 17 лет обязательно присутствие взрослого


Качество: BDRip-AVC
Формат: MKV
Видео: AVC, 1024×428 (2.40:1), 2756 kbps, 23,976 fps, 0,262 bpp
Аудио №1: русский / AC3 / 5.1 / 48 kHz / 448 kbps / MVO DVD R5
Аудио №2: русский / AC3 / 5.1 / 48 kHz / 448 kbps / MVO канал "НТН"
Аудио №3: украинский / AC3 / 5.1 / 48 kHz / 384 kbps / MVO канал "1+1"
Аудио №4: русский / AC3 / 5.1 / 48 kHz / 448 kbps / AVO Ю. Живов
Аудио №5: русский / AC3 / 5.1 / 48 kHz / 448 kbps / AVO П. Гланц
Аудио №6: английский / AC3 / 5.1 / 48 kHz / 448 kbps / Оригинал
Навигация по главам: есть


Релиз от:


ОтчетМедиаИнфо

General
Unique ID : 183667588430646164567394647196834924956 (0x8A2D17411B4745F9B2DBEFAE2DEF099C)
Complete name : D:downloadThe Insider.1999.BDRip-AVC by schultz R.G.Resident.mkv
Format : Matroska
Format version : Version 4 / Version 2
File size : 5.93 GiB
Duration : 2 h 37 min
Overall bit rate : 5 384 kb/s
Encoded date : UTC 2018-02-10 15:15:39
Writing application : mkvmerge v8.9.0 ('Father Daughter') 64bit
Writing library : libebml v1.3.3 + libmatroska v1.4.4

Video
ID : 1
Format : AVC
Format/Info : Advanced Video Codec
Format profile : [email protected]
Format settings, CABAC : Yes
Format settings, ReFrames : 10 frames
Codec ID : V_MPEG4/ISO/AVC
Duration : 2 h 37 min
Bit rate : 2 756 kb/s
Width : 1 024 pixels
Height : 428 pixels
Display aspect ratio : 2.40:1
Frame rate mode : Constant
Frame rate : 23.976 FPS
Color space : YUV
Chroma subsampling : 4:2:0
Bit depth : 8 bits
Scan type : Progressive
Bits/(Pixel*Frame) : 0.262
Stream size : 3.04 GiB (51%)
Writing library : x264 core 146 r2538 121396c
Encoding settings : cabac=1 / ref=10 / deblock=1:-3:-3 / analyse=0x3:0 / me=umh / subme=11 / psy=1 / psy_rd=1.00:0.00 / mixed_ref=1 / me_range=32 / chroma_me=1 / trellis=2 / 8x8dct=1 / cqm=0 / deadzone=21,11 / fast_pskip=0 / chroma_qp_offset=-2 / threads=12 / lookahead_threads=3 / sliced_threads=0 / nr=0 / decimate=0 / interlaced=0 / bluray_compat=0 / constrained_intra=0 / bframes=11 / b_pyramid=2 / b_adapt=2 / b_bias=0 / direct=3 / weightb=1 / open_gop=0 / weightp=2 / keyint=240 / keyint_min=23 / scenecut=40 / intra_refresh=0 / rc_lookahead=40 / rc=2pass / mbtree=0 / bitrate=2756 / ratetol=1.0 / qcomp=0.60 / qpmin=0 / qpmax=69 / qpstep=4 / cplxblur=20.0 / qblur=0.5 / vbv_maxrate=50000 / vbv_bufsize=62500 / nal_hrd=none / filler=0 / ip_ratio=1.40 / pb_ratio=1.30 / aq=1:1.00
Language : English
Default : Yes
Forced : No

Audio #1
ID : 2
Format : AC-3
Format/Info : Audio Coding 3
Mode extension : CM (complete main)
Format settings, Endianness : Big
Codec ID : A_AC3
Duration : 2 h 37 min
Bit rate mode : Constant
Bit rate : 448 kb/s
Channel(s) : 6 channels
Channel positions : Front: L C R, Side: L R, LFE
Sampling rate : 48.0 kHz
Frame rate : 31.250 FPS (1536 spf)
Compression mode : Lossy
Stream size : 506 MiB (8%)
Title : DVD R5
Language : Russian
Default : Yes
Forced : No

Audio #2
ID : 3
Format : AC-3
Format/Info : Audio Coding 3
Mode extension : CM (complete main)
Format settings, Endianness : Big
Codec ID : A_AC3
Duration : 2 h 37 min
Bit rate mode : Constant
Bit rate : 448 kb/s
Channel(s) : 6 channels
Channel positions : Front: L C R, Side: L R, LFE
Sampling rate : 48.0 kHz
Frame rate : 31.250 FPS (1536 spf)
Compression mode : Lossy
Stream size : 506 MiB (8%)
Title : канал "НТН"
Language : Russian
Default : No
Forced : No

Audio #3
ID : 4
Format : AC-3
Format/Info : Audio Coding 3
Mode extension : CM (complete main)
Format settings, Endianness : Big
Codec ID : A_AC3
Duration : 2 h 37 min
Bit rate mode : Constant
Bit rate : 384 kb/s
Channel(s) : 6 channels
Channel positions : Front: L C R, Side: L R, LFE
Sampling rate : 48.0 kHz
Frame rate : 31.250 FPS (1536 spf)
Compression mode : Lossy
Stream size : 433 MiB (7%)
Title : канал "1+1"
Language : Ukrainian
Default : No
Forced : No

Audio #4
ID : 5
Format : AC-3
Format/Info : Audio Coding 3
Mode extension : CM (complete main)
Format settings, Endianness : Big
Codec ID : A_AC3
Duration : 2 h 37 min
Bit rate mode : Constant
Bit rate : 448 kb/s
Channel(s) : 6 channels
Channel positions : Front: L C R, Side: L R, LFE
Sampling rate : 48.0 kHz
Frame rate : 31.250 FPS (1536 spf)
Compression mode : Lossy
Stream size : 506 MiB (8%)
Title : Ю. Живов
Language : Russian
Default : No
Forced : No

Audio #5
ID : 6
Format : AC-3
Format/Info : Audio Coding 3
Mode extension : CM (complete main)
Format settings, Endianness : Big
Codec ID : A_AC3
Duration : 2 h 37 min
Bit rate mode : Constant
Bit rate : 448 kb/s
Channel(s) : 6 channels
Channel positions : Front: L C R, Side: L R, LFE
Sampling rate : 48.0 kHz
Frame rate : 31.250 FPS (1536 spf)
Compression mode : Lossy
Stream size : 506 MiB (8%)
Title : П. Гланц
Language : Russian
Default : No
Forced : No

Audio #6
ID : 7
Format : AC-3
Format/Info : Audio Coding 3
Mode extension : CM (complete main)
Format settings, Endianness : Big
Codec ID : A_AC3
Duration : 2 h 37 min
Bit rate mode : Constant
Bit rate : 448 kb/s
Channel(s) : 6 channels
Channel positions : Front: L C R, Side: L R, LFE
Sampling rate : 48.0 kHz
Frame rate : 31.250 FPS (1536 spf)
Compression mode : Lossy
Stream size : 506 MiB (8%)
Title : Оригинал
Language : English
Default : No
Forced : No

Text #1
ID : 8
Format : UTF-8
Codec ID : S_TEXT/UTF8
Codec ID/Info : UTF-8 Plain Text
Duration : 2 h 33 min
Bit rate : 88 b/s
Count of elements : 1246
Stream size : 100.0 KiB (0%)
Title : full
Language : Russian
Default : No
Forced : No

Text #2
ID : 9
Format : UTF-8
Codec ID : S_TEXT/UTF8
Codec ID/Info : UTF-8 Plain Text
Duration : 2 h 36 min
Bit rate : 66 b/s
Count of elements : 1964
Stream size : 76.3 KiB (0%)
Title : full
Language : English
Default : No
Forced : No

Menu
00:00:00.000 : en:Chapter 1
00:06:14.499 : en:Chapter 2
00:12:41.344 : en:Chapter 3
00:15:12.245 : en:Chapter 4
00:17:23.291 : en:Chapter 5
00:22:30.932 : en:Chapter 6
00:29:00.029 : en:Chapter 7
00:37:42.844 : en:Chapter 8
00:43:55.132 : en:Chapter 9
00:48:01.503 : en:Chapter 10
00:51:18.032 : en:Chapter 11
00:54:29.432 : en:Chapter 12
00:57:20.061 : en:Chapter 13
01:01:10.876 : en:Chapter 14
01:03:49.242 : en:Chapter 15
01:12:11.327 : en:Chapter 16
01:17:26.765 : en:Chapter 17
01:23:00.893 : en:Chapter 18
01:30:45.439 : en:Chapter 19
01:40:28.773 : en:Chapter 20
01:43:58.524 : en:Chapter 21
01:51:27.680 : en:Chapter 22
01:56:44.079 : en:Chapter 23
02:03:34.282 : en:Chapter 24
02:15:42.551 : en:Chapter 25
02:19:20.810 : en:Chapter 26
02:23:33.729 : en:Chapter 27
02:26:37.745 : en:Chapter 28
02:30:18.968 : en:Chapter 29
02:33:18.105 : en:Chapter 30

Скриншоты


Скачать The_Insider.1999.BDRip-AVC_by_schultz_R.G.Resid.torrent

просмотры: 3

Post Comment