Военный Зарубежные фильмы

Приказано уничтожить / Executive Decision (1996) BDRip-HEVC 1080p | D, A

Информация о фильме
Название: Приказано уничтожить
Оригинальное название: Executive Decision
Год выхода: 1996
Жанр: боевик, триллер, приключения
Режиссер: Стюарт Бейрд
В ролях: Курт Рассел, Стивен Сигал, Холли Берри, Джон Легуизамо, Оливер Плэтт, Джо Мортон, Б.Д. Вонг, Лен Кариу, Уип Хабли, Андреас Кацулас, Мэри Эллен Трейнор, Марла Мэйплс, Дж.Т. Уолш, Инго Нойхаус, Уильям Джеймс Джонс, Пол Коллинз

О фильме:
Задание: проникнуть на борт находящегося в воздухе на высоте 5 миль над землей «Боинга — 747», захваченного террористами. Провести операцию скрытно. Найти и обезвредить находящуюся на боевом взводе бомбу, способную уничтожить все население восточных прибрежных штатов. Сделать это в отсутствии радиосвязи с землей, прежде, чем у военных сдадут нервы и они отдадут приказ уничтожить авиалайнер ракетной атакой.

Страна: США
Продолжительность: 02:12:41
Перевод: Профессиональный дублированный, профессиональный одноголосый

Файл
Кодек: HEVC x265 10bit
Качество: BDRip-HEVC 1080p
Видео: 1920×800, 23.976 кадр/сек, 6179 Кбит/сек, (Main [email protected]@High) 10bit
Звук:
Аудио1: Русская, AC3 384 Кбит/сек, 6 канала(ов),16bit 48,0 КГц (Дубляж R5)
Аудио2: Русская, AC3 384 Кбит/сек, 6 канала(ов),16bit 48,0 КГц (Гаврилов)
Аудио3: Русская, AC3 192 Кбит/сек, 2 канала(ов),16bit 48,0 КГц (Визгунов)
Аудио4: English, AC3 384 Кбит/сек, 6 канала(ов),16bit 48,0 КГц
Субтитры: Русские, English
Навигация по главам: Есть

Mediainfo
General
Unique ID : 204853363743413761129926849694260748434 (0x9A1D529F5CF92F7286B7B6F9DA9B6092)
Complete name : F:HEVCExecutive Decision (1996) BDRip 1080p [HEVC] 10Bit.mkv
Format : Matroska
Format version : Version 4 / Version 2
File size : 6.98 GiB
Duration : 2 h 12 min
Overall bit rate : 7 525 kb/s
Movie name : rip_by_Cthulhu
Encoded date : UTC 2018-01-05 20:15:09
Writing application : mkvmerge v18.0.0 ('Apricity') 64-bit
Writing library : libebml v1.3.5 + libmatroska v1.4.8
Cover : Yes
Attachments : cover.jpg

Video
ID : 1
Format : HEVC
Format/Info : High Efficiency Video Coding
Format profile : Main [email protected]@High
Codec ID : V_MPEGH/ISO/HEVC
Duration : 2 h 12 min
Bit rate : 6 179 kb/s
Width : 1 920 pixels
Height : 800 pixels
Display aspect ratio : 2.40:1
Frame rate mode : Constant
Frame rate : 23.976 (24000/1001) FPS
Color space : YUV
Chroma subsampling : 4:2:0
Bit depth : 10 bits
Bits/(Pixel*Frame) : 0.168
Stream size : 5.73 GiB (82%)
Writing library : x265 2.6+22-ff02513b92c0:[Windows][GCC 7.1.0][64 bit] 10bit
Encoding settings : cpuid=1050111 / frame-threads=5 / numa-pools=4 / wpp / no-pmode / no-pme / no-psnr / no-ssim / log-level=3 / input-csp=1 / input-res=1920×800 / interlace=0 / total-frames=0 / level-idc=0 / high-tier=1 / uhd-bd=0 / ref=5 / allow-non-conformance / no-repeat-headers / annexb / no-aud / no-hrd / info / hash=0 / no-temporal-layers / open-gop / min-keyint=24 / keyint=240 / gop-lookahead=0 / bframes=8 / b-adapt=2 / b-pyramid / bframe-bias=0 / rc-lookahead=40 / lookahead-slices=5 / scenecut=40 / radl=0 / no-intra-refresh / ctu=64 / min-cu-size=8 / no-rect / no-amp / max-tu-size=32 / tu-inter-depth=3 / tu-intra-depth=3 / limit-tu=0 / rdoq-level=0 / dynamic-rd=0.00 / no-ssim-rd / signhide / no-tskip / nr-intra=0 / nr-inter=0 / no-constrained-intra / strong-intra-smoothing / max-merge=3 / limit-refs=3 / no-limit-modes / me=2 / subme=7 / merange=57 / temporal-mvp / weightp / weightb / no-analyze-src-pics / deblock=-4:-4 / no-sao / no-sao-non-deblock / rd=4 / no-early-skip / rskip / no-fast-intra / no-tskip-fast / no-cu-lossless / no-b-intra / no-splitrd-skip / rdpenalty=0 / psy-rd=2.00 / psy-rdoq=0.00 / no-rd-refine / no-lossless / cbqpoffs=0 / crqpoffs=0 / rc=crf / crf=18.0 / qcomp=0.60 / qpstep=4 / stats-write=0 / stats-read=0 / vbv-maxrate=50000 / vbv-bufsize=35714 / vbv-init=0.9 / crf-max=0.0 / crf-min=0.0 / ipratio=1.40 / pbratio=1.30 / aq-mode=1 / aq-strength=1.00 / cutree / zone-count=0 / no-strict-cbr / qg-size=32 / no-rc-grain / qpmax=69 / qpmin=0 / no-const-vbv / sar=1 / overscan=0 / videoformat=5 / range=0 / colorprim=2 / transfer=2 / colormatrix=2 / chromaloc=0 / display-window=0 / max-cll=0,0 / min-luma=0 / max-luma=1023 / log2-max-poc-lsb=8 / vui-timing-info / vui-hrd-info / slices=1 / no-opt-qp-pps / no-opt-ref-list-length-pps / no-multi-pass-opt-rps / scenecut-bias=0.05 / no-opt-cu-delta-qp / no-aq-motion / no-hdr / no-hdr-opt / no-dhdr10-opt / analysis-save=(null) / analysis-load=(null) / analysis-reuse-level=5 / scale-factor=0 / refine-intra=0 / refine-inter=0 / refine-mv=0 / no-limit-sao / ctu-info=0 / no-lowpass-dct / refine-mv-type=0 / copy-pic=1
Language : English
Default : Yes
Forced : No
Color range : Full

Audio #1
ID : 2
Format : AC-3
Format/Info : Audio Coding 3
Format settings, Endianness : Big
Codec ID : A_AC3
Duration : 2 h 12 min
Bit rate mode : Constant
Bit rate : 384 kb/s
Channel(s) : 6 channels
Channel positions : Front: L C R, Side: L R, LFE
Sampling rate : 48.0 kHz
Frame rate : 31.250 FPS (1536 SPF)
Bit depth : 16 bits
Compression mode : Lossy
Stream size : 364 MiB (5%)
Title : Дубляж R5
Language : Russian
Service kind : Complete Main
Default : Yes
Forced : No

Audio #2
ID : 3
Format : AC-3
Format/Info : Audio Coding 3
Format settings, Endianness : Big
Codec ID : A_AC3
Duration : 2 h 12 min
Bit rate mode : Constant
Bit rate : 384 kb/s
Channel(s) : 6 channels
Channel positions : Front: L C R, Side: L R, LFE
Sampling rate : 48.0 kHz
Frame rate : 31.250 FPS (1536 SPF)
Bit depth : 16 bits
Compression mode : Lossy
Stream size : 364 MiB (5%)
Title : Авторский (Гаврилов)
Language : Russian
Service kind : Complete Main
Default : No
Forced : No

Audio #3
ID : 4
Format : AC-3
Format/Info : Audio Coding 3
Format settings, Endianness : Big
Codec ID : A_AC3
Duration : 2 h 12 min
Bit rate mode : Constant
Bit rate : 192 kb/s
Channel(s) : 2 channels
Channel positions : Front: L R
Sampling rate : 48.0 kHz
Frame rate : 31.250 FPS (1536 SPF)
Bit depth : 16 bits
Compression mode : Lossy
Stream size : 182 MiB (3%)
Title : Авторский (Визгунов)
Language : Russian
Service kind : Complete Main
Default : No
Forced : No

Audio #4
ID : 5
Format : AC-3
Format/Info : Audio Coding 3
Format settings, Endianness : Big
Codec ID : A_AC3
Duration : 2 h 12 min
Bit rate mode : Constant
Bit rate : 384 kb/s
Channel(s) : 6 channels
Channel positions : Front: L C R, Side: L R, LFE
Sampling rate : 48.0 kHz
Frame rate : 31.250 FPS (1536 SPF)
Bit depth : 16 bits
Compression mode : Lossy
Stream size : 364 MiB (5%)
Language : English
Service kind : Complete Main
Default : No
Forced : No

Text #1
ID : 6
Format : UTF-8
Codec ID : S_TEXT/UTF8
Codec ID/Info : UTF-8 Plain Text
Duration : 2 h 7 min
Bit rate : 63 b/s
Count of elements : 1347
Stream size : 59.4 KiB (0%)
Language : Russian
Default : Yes
Forced : No

Text #2
ID : 7
Format : UTF-8
Codec ID : S_TEXT/UTF8
Codec ID/Info : UTF-8 Plain Text
Duration : 2 h 10 min
Bit rate : 42 b/s
Count of elements : 1468
Stream size : 41.1 KiB (0%)
Language : English
Default : No
Forced : No

Menu
00:00:00.000 : :Глава 1
00:04:51.666 : :Глава 2
00:06:45.822 : :Глава 3
00:10:06.939 : :Глава 4
00:10:51.609 : :Глава 5
00:14:42.172 : :Глава 6
00:16:51.635 : :Глава 7
00:22:37.230 : :Глава 8
00:25:40.497 : :Глава 9
00:32:36.955 : :Глава 10
00:39:31.035 : :Глава 11
00:44:33.379 : :Глава 12
00:49:23.251 : :Глава 13
00:53:17.611 : :Глава 14
00:59:28.606 : :Глава 15
01:03:58.835 : :Глава 16
01:07:04.395 : :Глава 17
01:08:10.252 : :Глава 18
01:10:50.621 : :Глава 19
01:14:51.236 : :Глава 20
01:20:16.978 : :Глава 21
01:22:18.391 : :Глава 22
01:24:41.117 : :Глава 23
01:31:11.841 : :Глава 24
01:34:18.944 : :Глава 25
01:41:14.401 : :Глава 26
01:43:28.535 : :Глава 27
01:46:41.937 : :Глава 28
01:50:02.679 : :Глава 29
01:51:12.707 : :Глава 30
01:52:38.418 : :Глава 31
01:54:56.890 : :Глава 32
01:56:51.963 : :Глава 33
01:58:09.082 : :Глава 34
02:01:49.802 : :Глава 35
02:05:22.389 : :Глава 36
02:08:00.214 : :Глава 37
02:12:41.161 : :Глава 38

Скриншоты

Релиз от: Cthulhu


Скачать Executive_Decision_1996_BDRip_1080p_HEVC_10Bit..torrent

просмотры: 4

Post Comment