Другое

Музыкальный спектакль — Зимовье зверей — Звери ищут лето (2006) DVD5

Информация о спектакле
Название: Зимовье зверей — Звери ищут лето
Год выхода: 2006
Жанр: мюзикл, спектакль
В ролях:
Автор пьесы — Константин Арбенин
Гитарист — Александр Петерсон
Скрипачка — Александра Савина

О спектакле:
Музыкальный спектакль "Звери ищут лето" в постановке группы "Зимовье Зверей", создан по мотивам русских народных сказок. Трагикомическое новогоднее представление для детей и взрослых со свойственным коллективу артистизмом и самоиронией, заставляя вспомнить атмосферу музыкальных сказок 70-80-х годов.
Видео-версия спектакля записана в январе 2006 года в театре кукол «Волшебный фонарь» (г. Сосновый бор). Режиссер видео-монтажа — Юрий Зуев.

Треклист (собран в интерактивное меню диска)

Увертюра
Песня зверей в хлеву
Баранья джига
В поисках лета (1)
Волчий шансон
Марш лесных хищников
Сказка сказывается
Баллада вечного быка
Ария вечного ослика
В поисках лета (2)
Дело делается
Лисий вальс
Гусиный блюз
Метаморфозы хищников
Медвежий дивертисмент
Романс свинки
Разговор с хозяином
Частушки зверей
В поисках лета (3)
Финал

Страна: Россия
Студия: Издательство "Планета музыки"
Продолжительность: 01:29:04

Доп. информация: Здесь лучше видео дорожка; и, где-то в 3 раза лучше версии на ютюбе, даже по звуку. Раздача состоит из не пережатых файлов с копии оригинального диска, который достался мне без буклетов и обложек.
Воспроизводить с файлов VIDEO_TS.IFO или VTS_01_0.IFO. VTS_02_0.IFO воспроизводит весь спектакль целиком, без меню с главами и предупреждений.

Файл
Кодек: MPEG2
Качество: DVD 720p
Видео: 720×576 (4:3), ~6914 kbps, 25 fps
Звук: AC3, 2 ch, 192 kbps

МедиаИнфо

15 файлов: 9 вобов (гагабайтных со спектаклям 4), 3 BUP, 3 INFO
Вобы со спектаклям примерно все одинаковые, длинной по 20 минут
Общее
Полное имя : I:Мi ТерещенкоЗвери ищут летоVTS_02_3.VOB
Формат : MPEG-PS
Размер файла : 1024 Мбайт
Продолжительность : 20 м.
Общий поток : 6913 Кбит/сек

Видео
Идентификатор : 224 (0xE0)
Формат : MPEG Video
Версия формата : Version 2
Профиль формата : [email protected]
Параметр BVOP формата : Да
Параметр матрицы формата : По умолчанию
Параметр GOP формата : M=3, N=12
Структура изображения : Frame
Продолжительность : 20 м.
Битрейт : 6618 Кбит/сек
Ширина : 720 пикселей
Высота : 576 пикселей
Соотношение сторон : 4:3
Частота кадров : 25,000 кадров/сек
Стандарт вещания : PAL
Цветовое пространство : YUV
Субдискретизация насыщенности : 4:2:0
Битовая глубина : 8 бит
Тип развёртки : Чересстрочная
Порядок развёртки : Нижнее поле первое
Метод сжатия : С потерями
Бит/(Пиксели*Кадры) : 0.638
Временной код первого кадра : 00:41:24:20
Оригинал временного кода : Group of pictures header
GOP, открыто/закрыто : Закрыто
Размер потока : 975 Мбайт (95%)

Аудио
Идентификатор : 189 (0xBD)-128 (0x80)
Формат : AC-3
Формат/Информация : Audio Coding 3
Расширение режима : CM (complete main)
Параметр Endianness формата : Big
Режим смешивания : DVD-Video
Продолжительность : 20 м.
Вид битрейта : Постоянный
Битрейт : 192 Кбит/сек
Каналы : 2 канала
Расположение каналов : Front: L R
Частота : 48,0 КГц
Частота кадров : 31,250 кадров/сек (1536 spf)
Метод сжатия : С потерями
Задержка видео : -64 мс.
Размер потока : 28,4 Мбайт (3%)
Скриншоты

Релиз от:
——Метеорит Фантазий——


Скачать Zveri_iwut_leto.torrent

просмотры: 3

Post Comment