Боевик Зарубежные фильмы

Константин: Повелитель тьмы / Constantine (2005) HD-DVD Remux 1080p | D, P, P2, A

Название: Константин: Повелитель тьмы
Оригинальное название: Constantine
Год выхода: 2005
Жанр: Фэнтези, боевик, триллер
Режиссер: Френсис Лоуренс
В ролях: Киану Ривз, Рейчел Вайс, Шайа ЛаБаф, Джимон Хунсу, Макс Бейкер, Прюитт Тэйлор Винс, Гэвин Россдэйл, Тильда Суинтон, Петер Стормаре, Джесси Рамирез


О фильме:
Джону Константину удалось не только побывать в аду, но и вернуться обратно. Родившись с неугодным самому себе талантом — способностью распознавать помесь ангелов и демонов, которые бродят по земле в облике людей, — Константин под давлением обстоятельств пытается совершить самоубийство, лишь бы избавиться от мучительных видений. Но неудачно. Воскрешенный против собственной воли он снова оказывается в мире живых. Теперь, отмеченный печатью суицида и получивший временное право на жизнь, он патрулирует границу, разделяющую рай и ад, тщетно надеясь на обретение спасения путем сражения с земными ставленниками зла. Но и Константин не святой. Приходя всё в большее разочарование от окружающего мира, и будучи не в ладу с миром потусторонним, ожесточившись от тяжелой жизни, он начинает спиваться, с презрением относясь к самой идее героизма. Константин будет бороться за вашу душу, но ему не нужно ни ваше восхищение, ни ваша благодарность. И уж меньше всего ваше сочувствие! Все, что ему нужно, — это найти выход. Когда отчаявшаяся, но не растерявшая свой скептицизм сотрудница полиции заручается поддержкой Константина для раскрытия загадочного самоубийства ее сестры-близнеца, расследование заводит их в мир демонов и ангелов, что находится в подземелье современного мегаполиса Лос-Анджелеса. Попав в череду катастрофических событий иного мира, Константин и Анджела настолько увязают в них, что обретение мира и спокойствия любой ценой становится для них самоцелью…



Страна: США, Германия
Студия: Warner Bros. Pictures
Продолжительность: 02:00:47
Перевод: профессиональный (дублированный), профессиональный (многоголосый), профессиональный (двухголосый), авторский (одноголосый)
Субтитры: русские (forced), английские (full)


Файл
Формат: MKV
Качество: HD-DVD Remux 1080p
Видео: VC-1 Video / 13.1 Mbps / 1920×1080 / 23,976 fps
Звук:
Аудио 01: Russian, Dolby Digital Audio, 6 ch, 640 Kbps — Дублированный
Аудио 02: Russian, DTS-HD Master Audio, 6 ch, 2147 Kbps — Многоголосый (Superbit)
Аудио 03: Russian, DTS-HD Master Audio, 6 ch, 2152 Kbps — Двухголосый (Tycoon)
Аудио 04: Russian, DTS-HD Master Audio, 6 ch, 2150 Kbps — Двухголосый (Temper Crew)
Аудио 05: Russian, DTS-HD Master Audio, 6 ch, 1998 Kbps — Авторский (Матвеев)
Аудио 06: Russian, DTS-HD Master Audio, 6 ch, 2150 Kbps — Авторский (Гаврилов)
Аудио 07: Russian, DTS-HD Master Audio, 6 ch, 2130 Kbps — Авторский (Гаевский)
Аудио 08: Russian, DTS-HD Master Audio, 6 ch, 2139 Kbps — Авторский (Королёв)
Аудио 09: Russian, Dolby Digital Audio, 2 ch, 192 Kbps — Авторский (Карповский)
Аудио 10: English, DTS-HD Master Audio, 6 ch, 2167 Kbps — Оригинал (Английский)

Внимание! Присутствует ненормативная лексика.

MediaInfo
Format : Matroska
Format version : Version 2
File size : 25.3 GiB
Duration : 2 h 0 min
Overall bit rate : 30.0 Mb/s
Movie name : Constantine (2005) HD-DVD Remux
Encoded date : UTC 2018-02-07 17:21:29
Writing application : mkvmerge v4.9.1 ('Ich will') сборка от Jul 11 2011 23:53:15
Writing library : libebml v1.2.1 + libmatroska v1.1.1

Video
ID : 1
Format : VC-1
Format profile : [email protected]
Codec ID : V_MS/VFW/FOURCC / WVC1
Codec ID/Hint : Microsoft
Duration : 2 h 0 min
Width : 1 920 pixels
Height : 1 080 pixels
Display aspect ratio : 16:9
Frame rate mode : Constant
Frame rate : 24.000 FPS
Original frame rate : 23.976 (24000/1001) FPS
Color space : YUV
Chroma subsampling : 4:2:0
Bit depth : 8 bits
Scan type : Progressive
Scan order : 2:3 Pulldown
Compression mode : Lossy
Title : Константин: Повелитель тьмы
Language : English
Default : Yes
Forced : No

Audio #1
ID : 2
Format : AC-3
Format/Info : Audio Coding 3
Format settings, Endianness : Big
Codec ID : A_AC3
Duration : 2 h 0 min
Bit rate mode : Constant
Bit rate : 640 kb/s
Channel(s) : 6 channels
Channel positions : Front: L C R, Side: L R, LFE
Sampling rate : 48.0 kHz
Frame rate : 31.250 FPS (1536 SPF)
Bit depth : 16 bits
Compression mode : Lossy
Stream size : 553 MiB (2%)
Title : Дубляж
Language : Russian
Service kind : Complete Main
Default : Yes
Forced : No

Audio #2
ID : 3
Format : DTS
Format/Info : Digital Theater Systems
Format profile : MA / Core
Mode : 16
Format settings, Endianness : Big
Codec ID : A_DTS
Duration : 2 h 0 min
Bit rate mode : Variable / Constant
Bit rate : Unknown / 1 509 kb/s
Channel(s) : 6 channels
Channel positions : Front: L C R, Side: L R, LFE
Sampling rate : 48.0 kHz
Frame rate : 93.750 FPS (512 SPF)
Bit depth : 16 bits
Compression mode : Lossless / Lossy
Title : Superbit
Language : Russian
Default : No
Forced : No

Audio #3
ID : 4
Format : DTS
Format/Info : Digital Theater Systems
Format profile : MA / Core
Mode : 16
Format settings, Endianness : Big
Codec ID : A_DTS
Duration : 2 h 0 min
Bit rate mode : Variable / Constant
Bit rate : Unknown / 1 509 kb/s
Channel(s) : 6 channels
Channel positions : Front: L C R, Side: L R, LFE
Sampling rate : 48.0 kHz
Frame rate : 93.750 FPS (512 SPF)
Bit depth : 16 bits
Compression mode : Lossless / Lossy
Title : Tycoon
Language : Russian
Default : No
Forced : No

Audio #4
ID : 5
Format : DTS
Format/Info : Digital Theater Systems
Format profile : MA / Core
Mode : 16
Format settings, Endianness : Big
Codec ID : A_DTS
Duration : 2 h 0 min
Bit rate mode : Variable / Constant
Bit rate : Unknown / 1 509 kb/s
Channel(s) : 6 channels
Channel positions : Front: L C R, Side: L R, LFE
Sampling rate : 48.0 kHz
Frame rate : 93.750 FPS (512 SPF)
Bit depth : 16 bits
Compression mode : Lossless / Lossy
Title : Temper Crew
Language : Russian
Default : No
Forced : No

Audio #5
ID : 6
Format : DTS
Format/Info : Digital Theater Systems
Format profile : MA / Core
Mode : 16
Format settings, Endianness : Big
Codec ID : A_DTS
Duration : 2 h 0 min
Bit rate mode : Variable / Constant
Bit rate : Unknown / 1 509 kb/s
Channel(s) : 6 channels
Channel positions : Front: L C R, Side: L R, LFE
Sampling rate : 48.0 kHz
Frame rate : 93.750 FPS (512 SPF)
Bit depth : 16 bits
Compression mode : Lossless / Lossy
Title : Матвеев
Language : Russian
Default : No
Forced : No

Audio #6
ID : 7
Format : DTS
Format/Info : Digital Theater Systems
Format profile : MA / Core
Mode : 16
Format settings, Endianness : Big
Codec ID : A_DTS
Duration : 2 h 0 min
Bit rate mode : Variable / Constant
Bit rate : Unknown / 1 509 kb/s
Channel(s) : 6 channels
Channel positions : Front: L C R, Side: L R, LFE
Sampling rate : 48.0 kHz
Frame rate : 93.750 FPS (512 SPF)
Bit depth : 16 bits
Compression mode : Lossless / Lossy
Title : Гаврилов
Language : Russian
Default : No
Forced : No

Audio #7
ID : 8
Format : DTS
Format/Info : Digital Theater Systems
Format profile : MA / Core
Mode : 16
Format settings, Endianness : Big
Codec ID : A_DTS
Duration : 2 h 0 min
Bit rate mode : Variable / Constant
Bit rate : Unknown / 1 509 kb/s
Channel(s) : 6 channels
Channel positions : Front: L C R, Side: L R, LFE
Sampling rate : 48.0 kHz
Frame rate : 93.750 FPS (512 SPF)
Bit depth : 16 bits
Compression mode : Lossless / Lossy
Title : Гаевский
Language : Russian
Default : No
Forced : No

Audio #8
ID : 9
Format : DTS
Format/Info : Digital Theater Systems
Format profile : MA / Core
Mode : 16
Format settings, Endianness : Big
Codec ID : A_DTS
Duration : 2 h 0 min
Bit rate mode : Variable / Constant
Bit rate : Unknown / 1 509 kb/s
Channel(s) : 6 channels
Channel positions : Front: L C R, Side: L R, LFE
Sampling rate : 48.0 kHz
Frame rate : 93.750 FPS (512 SPF)
Bit depth : 16 bits
Compression mode : Lossless / Lossy
Title : Королёв
Language : Russian
Default : No
Forced : No

Audio #9
ID : 10
Format : AC-3
Format/Info : Audio Coding 3
Format settings, Endianness : Big
Codec ID : A_AC3
Duration : 2 h 0 min
Bit rate mode : Constant
Bit rate : 192 kb/s
Channel(s) : 2 channels
Channel positions : Front: L R
Sampling rate : 48.0 kHz
Frame rate : 31.250 FPS (1536 SPF)
Bit depth : 16 bits
Compression mode : Lossy
Stream size : 166 MiB (1%)
Title : Карповский
Language : Russian
Service kind : Complete Main
Default : No
Forced : No

Audio #10
ID : 11
Format : DTS
Format/Info : Digital Theater Systems
Format profile : MA / Core
Mode : 16
Format settings, Endianness : Big
Codec ID : A_DTS
Duration : 2 h 0 min
Bit rate mode : Variable / Constant
Bit rate : Unknown / 1 509 kb/s
Channel(s) : 6 channels
Channel positions : Front: L C R, Side: L R, LFE
Sampling rate : 48.0 kHz
Frame rate : 93.750 FPS (512 SPF)
Bit depth : 16 bits
Compression mode : Lossless / Lossy
Title : Оригинал
Language : English
Default : No
Forced : No

Text #1
ID : 12
Format : UTF-8
Codec ID : S_TEXT/UTF8
Codec ID/Info : UTF-8 Plain Text
Title : forced
Language : Russian
Default : Yes
Forced : No

Text #2
ID : 13
Format : UTF-8
Codec ID : S_TEXT/UTF8
Codec ID/Info : UTF-8 Plain Text
Title : full
Language : English
Default : No
Forced : No

Menu
00:00:00.000 : en:The Spear of Destiny
00:02:48.168 : en:The Exorcism
00:06:43.403 : en:Demon in the Mirror
00:10:33.300 : en:Leap of Lost Faith
00:14:21.528 : en:Death in Their Paths
00:17:59.912 : en:Little Talks
00:20:31.397 : en:The Rules
00:24:31.470 : en:Message to Angela
00:27:22.641 : en:Personal Swarm
00:29:42.281 : en:Midnite and Balthazar
00:34:22.060 : en:Sounds Like a Theory
00:37:36.087 : en:Demonic Light Show
00:41:18.643 : en:To Hell and Back
00:46:49.974 : en:Hennessy to the Last Drop
00:50:29.359 : en:World Behind the World
00:53:33.878 : en:Things Left Behind
00:58:03.480 : en:Beeman Bedeviled
01:01:25.182 : en:No Turning Back
01:04:32.536 : en:Submerged
01:09:17.654 : en:Firepower for Protection
01:12:24.340 : en:Balthazar's Last Rites
01:16:06.229 : en:Blown and Blasted Away
01:18:30.539 : en:Electric Chair Visions
01:22:36.785 : en:Not Always Like in Books
01:25:50.813 : en:Holy Water Assult
01:29:52.054 : en:Devil Inside Her
01:34:05.973 : en:Gabriels Road to Salvation
01:37:07.989 : en:Bloodletting
01:39:59.160 : en:Satan
01:42:57.672 : en:Archangel and Devil
01:45:03.630 : en:Luciferocious Lease on Life
01:48:28.002 : en:Get Used To It
01:51:29.516 : en:Safekeeping
01:53:52.826 : en:End Credits
Скриншоты


Скачать Constantine_2005_HD-DVD_Remux.mkv.torrent

просмотры: 10

Post Comment