Детектив Зарубежные фильмы

Гнев / Ikari (2016) BDRip 720p | A

Информация о фильме
Название: Гнев
Оригинальное название: Ikari
Год выхода: 2016
Жанр: триллер, драма, детектив
Режиссер: Ли Сан-иль
В ролях: Кен Ватанабе, Хикари Мицусима, Мираи Морияма, Аои Миядзаки, Сатоси Цумабуки, Го Аяно, Судзу Хиросэ, Хидэко Хара, Тидзуру Икэваки, Мицуки Такахата, Такахиро Миура, Пьер Таки, Урара Авата, Акира Эмото и др.

Описание: Человек зверски убивает семейную пару, а потом сбегает, оставив надпись кровью — слово «ГНЕВ». Полиция ищет убийцу по всей стране, но пока про него известно лишь одно — преступник сделал пластическую операцию и изменил внешность.

Портовый рабочий из Тибы уверен, что убийца — странный парень, с которым встречается его дочь. Рекламщик из Токио начинает подозревать, что убийца — его партнёр, которого он привёл к себе жить. В свою очередь девушка, недавно переехавшая на Окинаву, встречает на пустынном острове туриста, который просит её никому про него не рассказывать.

Страна: Япония
Продолжительность: 02:21:25
Перевод: Авторский (одноголосый закадровый) Андрей Дольский
Субтитры: английские
Оригинальная аудиодорожка: японский

Файл
Качество: BDRip 720p
Видео: AVC / 1280×536 / 2.40:1 / 23.976 fps / 4500 kbps / [email protected]
Аудио 1: Rus / DTS / 48.0 KHz / 5.1 / 1509kbps / 24 bit / Андрей Дольский
Аудио 2: Jap / DTS / 48.0 KHz / 5.1 / 1509kbps / 24 bit

Скриншоты

MediaInfo
Общее
Уникальный идентификатор : 254848006619497696948646308875987671758 (0xBFB9F0D3214A28199F520CD4C2BD5ACE)
Полное имя : Rage.2016.BDRip.720p.mkv
Формат : Matroska
Версия формата : Version 4 / Version 2
Размер файла : 7,43 Гбайт
Продолжительность : 2 ч. 21 м.
Общий поток : 7519 Кбит/сек
Название фильма : Rage.2016.BDRip.720p-porvaliparus
Дата кодирования : UTC 2017-11-03 11:20:40
Программа кодирования : mkvmerge v17.0.0 ('Be Ur Friend') 64-bit
Библиотека кодирования : libebml v1.3.5 + libmatroska v1.4.8

Видео
Идентификатор : 1
Формат : AVC
Формат/Информация : Advanced Video Codec
Профиль формата : [email protected]
Настройки формата : CABAC / 12 Ref Frames
Параметр CABAC формата : Да
Параметр RefFrames формата : 12 кадров
Идентификатор кодека : V_MPEG4/ISO/AVC
Продолжительность : 2 ч. 21 м.
Битрейт : 4500 Кбит/сек
Ширина : 1280 пикселей
Высота : 536 пикселей
Соотношение сторон : 2,40:1
Режим частоты кадров : Постоянный
Частота кадров : 23,976 (24000/1001) кадра/сек
Цветовое пространство : YUV
Субдискретизация насыщенности : 4:2:0
Битовая глубина : 8 бит
Тип развёртки : Прогрессивная
Бит/(Пиксели*Кадры) : 0.274
Размер потока : 4,44 Гбайт (60%)
Заголовок : Rage.2016.BDRip.720p
Библиотека кодирования : x264 core 152 r2851 ba24899
Настройки программы : cabac=1 / ref=12 / deblock=1:-3:-3 / analyse=0x3:0x133 / me=umh / subme=11 / psy=1 / psy_rd=1.00:0.10 / mixed_ref=1 / me_range=32 / chroma_me=1 / trellis=2 / 8x8dct=1 / cqm=0 / deadzone=21,11 / fast_pskip=0 / chroma_qp_offset=-3 / threads=12 / lookahead_threads=2 / sliced_threads=0 / nr=0 / decimate=1 / interlaced=0 / bluray_compat=0 / constrained_intra=0 / bframes=9 / b_pyramid=2 / b_adapt=2 / b_bias=0 / direct=3 / weightb=1 / open_gop=0 / weightp=2 / keyint=250 / keyint_min=23 / scenecut=40 / intra_refresh=0 / rc_lookahead=40 / rc=2pass / mbtree=0 / bitrate=4500 / ratetol=1.0 / qcomp=0.60 / qpmin=0 / qpmax=69 / qpstep=4 / cplxblur=20.0 / qblur=0.5 / vbv_maxrate=50000 / vbv_bufsize=62500 / nal_hrd=none / filler=0 / ip_ratio=1.40 / pb_ratio=1.30 / aq=1:0.80
Default : Да
Forced : Нет

Аудио #1
Идентификатор : 2
Формат : DTS
Формат/Информация : Digital Theater Systems
Режим : 16
Параметр Endianness формата : Big
Идентификатор кодека : A_DTS
Продолжительность : 2 ч. 21 м.
Вид битрейта : Постоянный
Битрейт : 1509 Кбит/сек
Каналы : 6 каналов
Расположение каналов : Front: L C R, Side: L R, LFE
Частота : 48,0 КГц
Частота кадров : 93,750 кадра/сек (512 SPF)
Битовая глубина : 24 бит
Метод сжатия : С потерями
Размер потока : 1,49 Гбайт (20%)
Заголовок : AVO [А. Дольский]
Язык : Russian
Default : Да
Forced : Нет

Аудио #2
Идентификатор : 3
Формат : DTS
Формат/Информация : Digital Theater Systems
Режим : 16
Параметр Endianness формата : Big
Идентификатор кодека : A_DTS
Продолжительность : 2 ч. 21 м.
Вид битрейта : Постоянный
Битрейт : 1509 Кбит/сек
Каналы : 6 каналов
Расположение каналов : Front: L C R, Side: L R, LFE
Частота : 48,0 КГц
Частота кадров : 93,750 кадра/сек (512 SPF)
Битовая глубина : 24 бит
Метод сжатия : С потерями
Размер потока : 1,49 Гбайт (20%)
Язык : Japanese
Default : Нет
Forced : Нет

Текст
Идентификатор : 4
Формат : UTF-8
Идентификатор кодека : S_TEXT/UTF8
Идентификатор кодека/Информация : UTF-8 Plain Text
Продолжительность : 2 ч. 14 м.
Битрейт : 36 бит/сек
ElementCount : 1203
Размер потока : 35,6 Кбайт (0%)
Язык : English
Default : Нет
Forced : Нет

Меню
00:00:00.000 : en:00:00:00.000
00:04:06.746 : en:00:04:06.746
00:27:23.392 : en:00:27:23.392
00:46:41.715 : en:00:46:41.715
01:12:41.315 : en:01:12:41.315
01:32:21.536 : en:01:32:21.536
01:39:35.970 : en:01:39:35.970
02:03:02.208 : en:02:03:02.208
02:17:09.221 : en:02:17:09.221


Скачать Rage.2016.BDRip.720p.mkv.torrent

просмотры: 3

Post Comment