Боевик Зарубежные фильмы

Кровавая битва / Fainaru faito — Saigo no ichigeki (1989) BDRemux 1080p | А

Кровавая битва / Bloodfight / Fainaru faito — Saigo no ichigeki

Страна: Гонконг
Производство: Kurata Film Company
Год выпуска: 1989
Жанр: боевик, драма, приключения
Продолжительность: 01:36:28

Режиссер: Сюдзи Гото
Автор сценария: Ёсиаки Касигава

В ролях: Ясуаки Курата, Саймон Ям, Мэг Лам, Кристина Лосон, Боло Йен, Синъя Оно, Джон Ладальски, Стюарт Смит, Кен Бойл

Описание: Бывший победитель Гонконгского чемпионата мира по боевым искусствам, переживая потерю титула чемпиона, берёт на обучение талантливого молодого бойца, которого на очередном турнире настигает несчастье: его убивает мерзкий, но сильный и крутой Ли, представитель вьетнамской школы борьбы. Спившись вначале от горя, тренер тем не менее находит в себе силы отомстить, поскольку, протрезвев, он стал усиленно готовиться к ответному поединку…

Перевод: 4х Авторский (одноголосый, закадровый)
Субтитры: немецкие


Качество: BDRemux 1080p
Формат: МКV
Видео кодек: AVC
Аудио кодек: АС3
Видео: 1920×1080 (16:9), 23.976 fps, MPEG-4 AVC ~27.1 Мbps avg
Аудио №1: 48.0 kHz, AC3 Dolby Digital, 2/0 (L,R) ch, ~192 kbps | RUS / Юрий Сербин
Аудио №2: 48.0 kHz, AC3 Dolby Digital, 2/0 (L,R) ch, ~192 kbps | RUS / Сергей Визгунов
Аудио №3: 48.0 kHz, AC3 Dolby Digital, 2/0 (L,R) ch, ~192 kbps | RUS / Юрий Живов
Аудио №4: 48.0 kHz, AC3 Dolby Digital, 2/0 (L,R) ch, ~192 kbps | RUS / Андрей Дольский
Аудио №5: 48.0 kHz, AC3 Dolby Digital, 2/0 (L,R) ch, ~448 kbps | ENG
Формат субтитров: UTF-8 Plain Text

Дата премьеры (мир): 24 июня 1989

Релиз от:

BDRemux Info
General
Уникальный идентификатор : 175353087351225597479095463696277703305 (0x83EBC6B389FB5BDDBCCA500291D00A89)
Полное имя : Bloodfight.1989.BDRemux.1080p_by_vedigo.mkv
Формат : Matroska
Версия формата : Version 4 / Version 2
Размер файла : 19,1 Гбайт
Продолжительность : 1 ч. 36 м.
Режим общего битрейта : Переменный
Общий поток : 28,3 Мбит/сек
Дата кодирования : UTC 2017-04-12 05:15:39
Программа кодирования : mkvmerge v10.0.0 ('To Drown In You') 64bit
Библиотека кодирования : libebml v1.3.4 + libmatroska v1.4.5

Видео
Идентификатор : 1
Формат : AVC
Формат/Информация : Advanced Video Codec
Профиль формата : [email protected]
Параметр CABAC формата : Да
Параметр ReFrames формата : 3 кадра
Параметр GOP формата : M=3, N=23
Идентификатор кодека : V_MPEG4/ISO/AVC
Продолжительность : 1 ч. 36 м.
Вид битрейта : Переменный
Битрейт : 27,1 Мбит/сек
Максимальный битрейт : 35,0 Мбит/сек
Ширина : 1920 пикселей
Высота : 1080 пикселей
Соотношение сторон : 16:9
Режим частоты кадров : Постоянный
Частота кадров : 23,976 (24000/1001) кадра/сек
Стандарт вещания : NTSC
Цветовое пространство : YUV
Субдискретизация насыщенности : 4:2:0
Битовая глубина : 8 бит
Тип развёртки : Прогрессивная
Бит/(Пиксели*Кадры) : 0.545
Размер потока : 18,3 Гбайт (96%)
Default : Да
Forced : Нет
Цветовой диапазон : Limited
Основные цвета : BT.709
Характеристики трансфера : BT.709
Коэффициенты матрицы : BT.709

Аудио #1
Идентификатор : 2
Формат : AC-3
Формат/Информация : Audio Coding 3
Параметр Endianness формата : Big
Идентификатор кодека : A_AC3
Продолжительность : 1 ч. 36 м.
Вид битрейта : Постоянный
Битрейт : 192 Кбит/сек
Каналы : 2 канала
Расположение каналов : Front: L R
Частота : 48,0 КГц
Частота кадров : 31,250 кадров/сек (1536 spf)
Битовая глубина : 16 бит
Метод сжатия : С потерями
Размер потока : 132 Мбайт (1%)
Заголовок : AVO @ Ю. Сербин
Язык : Russian
Default : Да
Forced : Нет

Аудио #2
Идентификатор : 3
Формат : AC-3
Формат/Информация : Audio Coding 3
Параметр Endianness формата : Big
Идентификатор кодека : A_AC3
Продолжительность : 1 ч. 36 м.
Вид битрейта : Постоянный
Битрейт : 192 Кбит/сек
Каналы : 2 канала
Расположение каналов : Front: L R
Частота : 48,0 КГц
Частота кадров : 31,250 кадров/сек (1536 spf)
Битовая глубина : 16 бит
Метод сжатия : С потерями
Размер потока : 132 Мбайт (1%)
Заголовок : AVO @ С. Визгунов
Язык : Russian
Default : Нет
Forced : Нет

Аудио #3
Идентификатор : 4
Формат : AC-3
Формат/Информация : Audio Coding 3
Параметр Endianness формата : Big
Идентификатор кодека : A_AC3
Продолжительность : 1 ч. 36 м.
Вид битрейта : Постоянный
Битрейт : 192 Кбит/сек
Каналы : 2 канала
Расположение каналов : Front: L R
Частота : 48,0 КГц
Частота кадров : 31,250 кадров/сек (1536 spf)
Битовая глубина : 16 бит
Метод сжатия : С потерями
Размер потока : 132 Мбайт (1%)
Заголовок : AVO @ Ю. Живов
Язык : Russian
Default : Нет
Forced : Нет

Аудио #4
Идентификатор : 5
Формат : AC-3
Формат/Информация : Audio Coding 3
Параметр Endianness формата : Big
Идентификатор кодека : A_AC3
Продолжительность : 1 ч. 36 м.
Вид битрейта : Постоянный
Битрейт : 192 Кбит/сек
Каналы : 2 канала
Расположение каналов : Front: L R
Частота : 48,0 КГц
Частота кадров : 31,250 кадров/сек (1536 spf)
Битовая глубина : 16 бит
Метод сжатия : С потерями
Размер потока : 132 Мбайт (1%)
Заголовок : AVO @ А. Дольский
Язык : Russian
Default : Нет
Forced : Нет

Аудио #5
Идентификатор : 6
Формат : AC-3
Формат/Информация : Audio Coding 3
Параметр Endianness формата : Big
Идентификатор кодека : A_AC3
Продолжительность : 1 ч. 36 м.
Вид битрейта : Постоянный
Битрейт : 448 Кбит/сек
Каналы : 2 канала
Расположение каналов : Front: L R
Частота : 48,0 КГц
Частота кадров : 31,250 кадров/сек (1536 spf)
Битовая глубина : 16 бит
Метод сжатия : С потерями
Размер потока : 309 Мбайт (2%)
Заголовок : Original
Язык : English
Default : Нет
Forced : Нет

Текст
Идентификатор : 7
Формат : UTF-8
Идентификатор кодека : S_TEXT/UTF8
Идентификатор кодека/Информация : UTF-8 Plain Text
Продолжительность : 1 ч. 25 м.
Битрейт : 21 бит/сек
ElementCount : 386
Размер потока : 13,7 Кбайт (0%)
Заголовок : Subtitle Ger
Язык : German
Default : Нет
Forced : Нет

Меню
00:00:00.000 : :Глава 01
00:00:00.375 : :Глава 02
00:13:37.274 : :Глава 03
00:29:31.269 : :Глава 04
00:42:49.191 : :Глава 05
00:57:54.137 : :Глава 06
01:13:06.215 : :Глава 07
01:24:52.921 : :Глава 08
01:33:18.759 : :Глава 09
Скриншоты


Скачать Fainaru_faito_saigo_no_ichigeki.torrent

просмотры: 5

Post Comment