Драма Зарубежные фильмы

Большая игра / Molly’s Game (2017) DVDScr | L2

Информация о фильме
Название: Большая игра
Оригинальное название: Molly's Game
Год выхода: 2017
Жанр: драма, биография, криминал
Режиссер: Аарон Соркин
В ролях: Джессика Честейн, Идрис Эльба, Кевин Костнер, Майкл Сера, Джереми Стронг, Крис О’Дауд, Дж.С. МакКензи, Брайан Д’Арси Джеймс, Билл Кэмп, Грэм Грин

О фильме:
Молли Блум называли Принцессой покера. Она построила самое дорогое подпольное казино в Голливуде. Каждую минуту здесь шли ва-банк кинозвезды, шейхи, миллиардеры. Большие деньги пахнут кровью. Как выжить, когда за тобой охотится мафия и ФБР?

Страна: Китай, США, Канада
Студия: Entertainment One, Huayi Brothers Pictures, Pascal Pictures, Robert Simonds Company, The, The Mark Gordon Company
Продолжительность: 02:19:53
Перевод: любительский двухголосный, закадровый [HiWayGrope]

Файл
Кодек: XviD
Качество: DVDScr
Видео: 720×288 (2.500), 29.970 fps ~ 1550 Kbps
Звук:
AC3, 48 KHz, 2 ch ~ 256 Kb/s (русский)
AC3, 48 KHz, 2 ch ~ 256 Kb/s (английский)
Субтитры: русские отдельно (Focs) — ПРИСУТСТВУЕТ НЕНОРМАТИВНАЯ ЛЕКСИКА
Реклама: отсутствует

MI:

Общее
Полное имя : Q:TorFMollys.Game.2017.DVDScr[oscars]Mollys.Game.2017.DVDScr.avi
Формат : AVI
Формат/Информация : Audio Video Interleave
Профиль формата : OpenDML
Размер файла : 2,04 Гбайт
Продолжительность : 2 ч. 19 м.
Общий поток : 2088 Кбит/сек
Программа кодирования : VirtualDubMod 1.5.10.3 (build 2550/release)
Библиотека кодирования : VirtualDubMod build 2550/release

Видео
Идентификатор : 0
Формат : MPEG-4 Visual
Профиль формата : Advanced [email protected]
Параметр BVOP формата : 2
Параметр QPel формата : Да
Параметр GMC формата : Без точки перехода
Параметр матрицы формата : Default (H.263)
Режим смешивания : Сжатый битовый поток
Идентификатор кодека : XVID
Идентификатор кодека/Подсказка : XviD
Продолжительность : 2 ч. 19 м.
Битрейт : 1553 Кбит/сек
Ширина : 720 пикселей
Высота : 288 пикселей
Соотношение сторон : 2,500
Частота кадров : 29,970 кадров/сек
Цветовое пространство : YUV
Субдискретизация насыщенности : 4:2:0
Битовая глубина : 8 бит
Тип развёртки : Прогрессивная
Метод сжатия : С потерями
Бит/(Пиксели*Кадры) : 0.250
Размер потока : 1,52 Гбайт (74%)
Библиотека кодирования : XviD 1.2.1 (UTC 2008-12-04)

Аудио #1
Идентификатор : 1
Формат : AC-3
Формат/Информация : Audio Coding 3
Расширение режима : CM (complete main)
Идентификатор кодека : 2000
Продолжительность : 2 ч. 19 м.
Вид битрейта : Постоянный
Битрейт : 256 Кбит/сек
Каналы : 2 канала
Расположение каналов : Front: L R
Частота : 48,0 КГц
Битовая глубина : 16 бит
Метод сжатия : С потерями
Задержка видео : 190 мс.
Размер потока : 256 Мбайт (12%)
Выравнивание : Разделение по промежуткам
Продолжительность промежутка : 33 мс. (1,00 видеокадр)
Время предзагрузки промежутка : 500 мс.

Аудио #2
Идентификатор : 2
Формат : AC-3
Формат/Информация : Audio Coding 3
Расширение режима : CM (complete main)
Идентификатор кодека : 2000
Продолжительность : 2 ч. 19 м.
Вид битрейта : Постоянный
Битрейт : 256 Кбит/сек
Каналы : 2 канала
Расположение каналов : Front: L R
Частота : 48,0 КГц
Битовая глубина : 16 бит
Метод сжатия : С потерями
Задержка видео : 1 мс.
Размер потока : 256 Мбайт (12%)
Выравнивание : Разделение по промежуткам
Продолжительность промежутка : 33 мс. (1,00 видеокадр)
Время предзагрузки промежутка : 500 мс.

Семпл

Скриншоты


Скачать Mollys.Game.2017.DVDScroscars.torrent

просмотры: 4

Post Comment