Детектив Зарубежные фильмы

Скайлайн 2 / Beyond Skyline (2017) BDRip-AVC от ExKinoRay | Лицензия

Информация о фильме
Название: Скайлайн 2
Оригинальное название: Beyond Skyline
Год выхода: 2017
Жанр: Ужасы, фантастика, боевик, приключения
Режиссер: Лайам О’Доннелл
В ролях: Фрэнк Грилло, Бояна Новакович, Ико Уайс, Каллэн Мулвей, Валентайн Пайен, Бетти Гэбриел, Джек Чоссе, Кевин О’Доннелл, Крис Т. Адамс, Тони Блэк

Описание: Пришельцы нападают на Землю. Повсюду царит хаос. Их корабли зависают над городами и с помощью особых лучей затягивают людей внутрь. Одной из жертв инопланетян становится Трент, сын детектива Марка. Но бесстрашный детектив не намерен так этого оставлять. Он решает пробраться на инопланетный корабль и вызволить сына, чего бы ему это не стоило.

Страна: Сингапур, Великобритания, Индонезия, Канада, США
Студия: Beyond The Mothership, Infinite Frameworks Pte. Ltd., Head Gear Films
Продолжительность: 01:46:38
Перевод: Дублированный | Лицензия BD RUS

Файл
Контейнер: MKV
Качество: BDRip-AVC
Видео: AVC, 1024×428 (2.40:1), 23.976 fps, 2022 Kbps, 0.192 bit/pixel
Аудио 1: AC-3, 48.0 KHz, 5.1 ch, 448 Kbps, CBR (Russian)
Аудио 2: AC-3, 48.0 KHz, 5.1 ch, 448 Kbps, CBR (Eng)
Субтитры: Английские

МИ
General
Unique ID : 253190620574902402864758525193656240417 (0xBE7ABD623E34FB4C9C35DF160FD08921)
Complete name : D:Beyond.Skyline.2017.BDRip.AVC.ExKinoRay.mkv
Format : Matroska
Format version : Version 2
File size : 2.17 GiB
Duration : 1 h 46 min
Overall bit rate : 2 918 kb/s
Movie name : Beyond Skyline 2017 from ExKinoRay
Encoded date : UTC 2018-02-02 12:44:19
Writing application : mkvmerge v5.6.0 ('Kenya Kane') built on May 27 2012 16:44:04
Writing library : libebml v1.2.3 + libmatroska v1.3.0

Video
ID : 1
Format : AVC
Format/Info : Advanced Video Codec
Format profile : [email protected]
Format settings, CABAC : Yes
Format settings, ReFrames : 13 frames
Codec ID : V_MPEG4/ISO/AVC
Duration : 1 h 46 min
Bit rate : 2 022 kb/s
Width : 1 024 pixels
Height : 428 pixels
Display aspect ratio : 2.40:1
Frame rate mode : Constant
Frame rate : 23.976 (23976/1000) FPS
Color space : YUV
Chroma subsampling : 4:2:0
Bit depth : 8 bits
Scan type : Progressive
Bits/(Pixel*Frame) : 0.192
Stream size : 1.46 GiB (67%)
Title : Enigma
Writing library : x264 core 152 r2851 ba24899
Encoding settings : cabac=1 / ref=13 / deblock=1:-2:-3 / analyse=0x3:0x113 / me=umh / subme=10 / psy=1 / psy_rd=1.00:0.05 / mixed_ref=1 / me_range=32 / chroma_me=1 / trellis=2 / 8x8dct=1 / cqm=0 / deadzone=21,11 / fast_pskip=0 / chroma_qp_offset=-3 / threads=12 / lookahead_threads=3 / sliced_threads=0 / nr=0 / decimate=0 / interlaced=0 / bluray_compat=0 / constrained_intra=0 / bframes=10 / b_pyramid=2 / b_adapt=2 / b_bias=0 / direct=3 / weightb=1 / open_gop=0 / weightp=2 / keyint=240 / keyint_min=23 / scenecut=40 / intra_refresh=0 / rc_lookahead=40 / rc=2pass / mbtree=0 / bitrate=2022 / ratetol=1.0 / qcomp=0.60 / qpmin=0 / qpmax=51 / qpstep=4 / cplxblur=20.0 / qblur=0.5 / vbv_maxrate=50000 / vbv_bufsize=62500 / nal_hrd=none / filler=0 / ip_ratio=1.40 / pb_ratio=1.30 / aq=3:0.90
Language : English
Default : Yes
Forced : No
Color range : Limited
Color primaries : BT.709
Transfer characteristics : BT.709
Matrix coefficients : BT.709

Audio #1
ID : 2
Format : AC-3
Format/Info : Audio Coding 3
Mode extension : CM (complete main)
Format settings, Endianness : Big
Codec ID : A_AC3
Duration : 1 h 46 min
Bit rate mode : Constant
Bit rate : 448 kb/s
Channel(s) : 6 channels
Channel positions : Front: L C R, Side: L R, LFE
Sampling rate : 48.0 kHz
Frame rate : 31.250 FPS (1536 spf)
Compression mode : Lossy
Stream size : 342 MiB (15%)
Title : Dub [Blu-ray RUS]
Language : Russian
Default : Yes
Forced : No

Audio #2
ID : 3
Format : AC-3
Format/Info : Audio Coding 3
Mode extension : CM (complete main)
Format settings, Endianness : Big
Codec ID : A_AC3
Duration : 1 h 46 min
Bit rate mode : Constant
Bit rate : 448 kb/s
Channel(s) : 6 channels
Channel positions : Front: L C R, Side: L R, LFE
Sampling rate : 48.0 kHz
Frame rate : 31.250 FPS (1536 spf)
Compression mode : Lossy
Stream size : 342 MiB (15%)
Language : English
Default : No
Forced : No

Text
ID : 4
Format : UTF-8
Codec ID : S_TEXT/UTF8
Codec ID/Info : UTF-8 Plain Text
Language : English
Default : No
Forced : No

Menu
00:00:00.000 : en:00:00:00.000
00:07:42.587 : en:00:07:42.587
00:16:46.172 : en:00:16:46.172
00:24:08.947 : en:00:24:08.947
00:33:19.998 : en:00:33:19.998
00:42:11.112 : en:00:42:11.112
00:51:07.439 : en:00:51:07.439
00:59:55.717 : en:00:59:55.717
01:08:09.627 : en:01:08:09.627
01:18:35.961 : en:01:18:35.961
01:26:59.089 : en:01:26:59.089
01:35:50.453 : en:01:35:50.453

Релиз от:

Автор релиза:


Скачать Beyond.Skyline.2017.BDRip.AVC.ExKinoRay.torrent

просмотры: 5

Post Comment