Драма Зарубежные фильмы

Седьмое знамение / The Seventh Sign (1988) BDRip 1080p | D, P, P2, A




Информация о фильме
Название: Седьмое знамение
Оригинальное название: The Seventh Sign
Год выхода: 1988
Жанр: драма, мистика

Режиссер: Карл Шульц / Carl Schultz

В ролях: Деми Мур, Майкл Бьен, Юрген Прохнов, Питер Фридман, Мэнни Джекобс, Джон Тейлор, Ли Гарлингтон, Акосуа Бусиа, Гарри Бейзил, Арнольд Джонсон

О фильме:
Молодая женщина Абби Куин решила, что она и ее еще неродившийся ребенок играют ужасную роль в цепи событий, ведущих к концу света. Абби еще больше расстраивается, когда она и ее муж (Бин) сдают квартиру Дэвиду (Прохнов), таинственному бродяге. Теперь уже, уйдя с головой в сильные метафизические переживания, Абби понимает, что Дэвид несет мистические пророчества "Судного дня" и что она была выбрана в качестве "седьмого знамения". Но может ли одна женщина встать между гневом Господним и будущим человечества?

Страна: США
Продолжительность: 01:36:59
Перевод: Дубляж + Профессиональный (многоголосый закадровый) + Профессиональный (двухголосый закадровый) + Авторский (одноголосый закадровый)

Файл
Формат: MKV
Видео: 1920×816 at 23.976 fps, MPEG-4 AVC, ~10 mbps
Аудио#1: Russian: 48 kHz, AC3, 2/0 (L,R) ch, ~192 kbps |Дубляж, Варус Видео|
Аудио#2: Russian: 48 kHz, AC3, 2/0 (L,R) ch, ~192 kbps |Многоголосый закадровый, Петербург 5-й канал|
Аудио#3: Russian: 48 kHz, AC3, 2/0 (L,R) ch, ~192 kbps |Двухголосый закадровый|
Аудио#4: Russian: 48 kHz, AC3, 2/0 (L,R) ch, ~192 kbps |Одноголосый закадровый, А.Гаврилов|
Аудио#5: Russian: 48 kHz, AC3, 2/0 (L,R) ch, ~192 kbps |Одноголосый закадровый, Ю.Живов|
Аудио#6: English: 48 kHz, AC3, 2/0 (L,R) ch, ~192 kbps
Субтитры: Russian, English



Дополнительно
ЦитатаКто-то писал:
Сохранены оригинальные чаптеры как на Blu-ray.
M/I
x.264 log
-[Information] [04.02.2018 19:33:39] x264 [info]: frame I:691 Avg QP:17.00 size:203567
-[Information] [04.02.2018 19:33:40] x264 [info]: frame P:29068 Avg QP:19.26 size: 93546
-[Information] [04.02.2018 19:33:40] x264 [info]: frame B:109747 Avg QP:20.96 size: 40200

Mediainfo:
Общее
Уникальный идентификатор : 208754829326371206014467243431635997198 (0x9D0CB7BA1B467AD4E0DBE86E3D84520E)
Полное имя : The.Seventh.Sign.1988.1080p.nnm_video.mkv
Формат : Matroska
Версия формата : Version 2
Размер файла : 8,34 Гбайт
Продолжительность : 1 ч. 36 м.
Общий поток : 12,3 Мбит/сек
Название фильма : Седьмое знамение (The Seventh Sign) RG NNM Club Video
Дата кодирования : UTC 2018-02-05 07:56:37
Программа кодирования : mkvmerge v20.0.0 ('I Am The Sun') 64-bit
Библиотека кодирования : libebml v1.3.5 + libmatroska v1.4.8
Attachments : Лог кодирования.log

Видео
Идентификатор : 1
Формат : AVC
Формат/Информация : Advanced Video Codec
Профиль формата : [email protected]
Настройки формата : CABAC / 5 Ref Frames
Параметр CABAC формата : Да
Параметр RefFrames формата : 5 кадров
Идентификатор кодека : V_MPEG4/ISO/AVC
Продолжительность : 1 ч. 36 м.
Битрейт : 10000 Кбит/сек
Ширина : 1920 пикселей
Высота : 816 пикселей
Соотношение сторон : 2,35:1
Режим частоты кадров : Постоянный
Частота кадров : 23,976 (24000/1001) кадра/сек
Цветовое пространство : YUV
Субдискретизация насыщенности : 4:2:0
Битовая глубина : 8 бит
Тип развёртки : Прогрессивная
Бит/(Пиксели*Кадры) : 0.266
Размер потока : 6,61 Гбайт (79%)
Заголовок : Седьмое знамение (The Seventh Sign)
Библиотека кодирования : x264 core 152 r2851 ba24899
Настройки программы : cabac=1 / ref=5 / deblock=1:-1:-1 / analyse=0x3:0x133 / me=umh / subme=11 / psy=1 / psy_rd=1.00:0.15 / mixed_ref=1 / me_range=64 / chroma_me=1 / trellis=2 / 8x8dct=1 / cqm=0 / deadzone=21,11 / fast_pskip=0 / chroma_qp_offset=-3 / threads=6 / lookahead_threads=1 / sliced_threads=0 / nr=0 / decimate=0 / interlaced=0 / bluray_compat=0 / constrained_intra=0 / bframes=16 / b_pyramid=2 / b_adapt=2 / b_bias=0 / direct=3 / weightb=1 / open_gop=0 / weightp=2 / keyint=240 / keyint_min=23 / scenecut=40 / intra_refresh=0 / rc_lookahead=60 / rc=2pass / mbtree=0 / bitrate=10000 / ratetol=1.0 / qcomp=0.60 / qpmin=0 / qpmax=69 / qpstep=4 / cplxblur=20.0 / qblur=0.5 / vbv_maxrate=50000 / vbv_bufsize=62500 / nal_hrd=none / filler=0 / ip_ratio=1.40 / pb_ratio=1.30 / aq=1:1.00
Язык : English
Default : Да
Forced : Нет

Аудио #1
Идентификатор : 2
Формат : AC-3
Формат/Информация : Audio Coding 3
Идентификатор кодека : A_AC3
Продолжительность : 1 ч. 36 м.
Вид битрейта : Постоянный
Битрейт : 192 Кбит/сек
Каналы : 2 канала
Расположение каналов : Front: L R
Частота : 48,0 КГц
Частота кадров : 31,250 кадров/сек (1536 SPF)
Битовая глубина : 16 бит
Метод сжатия : С потерями
Размер потока : 133 Мбайт (2%)
Заголовок : Дублированный ''Варус Видео'' (AC-3, Постоянный, 192 Кбит/сек, 2 канала, 48,0 КГц, 16 бит)
Язык : Russian
Default : Да
Forced : Нет

Аудио #2
Идентификатор : 3
Формат : AC-3
Формат/Информация : Audio Coding 3
Идентификатор кодека : A_AC3
Продолжительность : 1 ч. 36 м.
Вид битрейта : Постоянный
Битрейт : 192 Кбит/сек
Каналы : 2 канала
Расположение каналов : Front: L R
Частота : 48,0 КГц
Частота кадров : 31,250 кадров/сек (1536 SPF)
Битовая глубина : 16 бит
Метод сжатия : С потерями
Размер потока : 133 Мбайт (2%)
Заголовок : Многоголосый ''Петербург 5 канал'' (AC-3, Постоянный, 192 Кбит/сек, 2 канала, 48,0 КГц, 16 бит)
Язык : Russian
Forced : Нет

Аудио #3
Идентификатор : 4
Формат : AC-3
Формат/Информация : Audio Coding 3
Идентификатор кодека : A_AC3
Продолжительность : 1 ч. 36 м.
Вид битрейта : Постоянный
Битрейт : 192 Кбит/сек
Каналы : 2 канала
Расположение каналов : Front: L R
Частота : 48,0 КГц
Частота кадров : 31,250 кадров/сек (1536 SPF)
Битовая глубина : 16 бит
Метод сжатия : С потерями
Размер потока : 133 Мбайт (2%)
Заголовок : Двухголосый ''Видеосервис'' (AC-3, Постоянный, 192 Кбит/сек, 2 канала, 48,0 КГц, 16 бит)
Язык : Russian
Default : Нет
Forced : Нет

Аудио #4
Идентификатор : 5
Формат : DTS
Формат/Информация : Digital Theater Systems
Идентификатор кодека : A_DTS
Продолжительность : 1 ч. 36 м.
Вид битрейта : Постоянный
Битрейт : 768 Кбит/сек
Каналы : 2 канала
Расположение каналов : Front: L R
Частота : 48,0 КГц
Частота кадров : 93,750 кадра/сек (512 SPF)
Битовая глубина : 24 бит
Метод сжатия : С потерями
Размер потока : 533 Мбайт (6%)
Заголовок : Авторский ''Андрей Гаврилов'' (DTS, Постоянный, 768 Кбит/сек, 2 канала, 48,0 КГц, 24 бит)
Язык : Russian
Default : Нет
Forced : Нет

Аудио #5
Идентификатор : 6
Формат : DTS
Формат/Информация : Digital Theater Systems
Идентификатор кодека : A_DTS
Продолжительность : 1 ч. 36 м.
Вид битрейта : Постоянный
Битрейт : 768 Кбит/сек
Каналы : 2 канала
Расположение каналов : Front: L R
Частота : 48,0 КГц
Частота кадров : 93,750 кадра/сек (512 SPF)
Битовая глубина : 24 бит
Метод сжатия : С потерями
Размер потока : 533 Мбайт (6%)
Заголовок : Авторский ''Юрий Живов'' (DTS, Постоянный, 768 Кбит/сек, 2 канала, 48,0 КГц, 24 бит)
Default : Нет
Forced : Нет

Аудио #6
Идентификатор : 7
Формат : AC-3
Формат/Информация : Audio Coding 3
Идентификатор кодека : A_AC3
Продолжительность : 1 ч. 36 м.
Вид битрейта : Постоянный
Битрейт : 192 Кбит/сек
Каналы : 2 канала
Расположение каналов : Front: L R
Частота : 48,0 КГц
Частота кадров : 31,250 кадров/сек (1536 SPF)
Битовая глубина : 16 бит
Метод сжатия : С потерями
Размер потока : 133 Мбайт (2%)
Заголовок : Оригинал (AC-3, Постоянный, 192 Кбит/сек, 2 канала, 48,0 КГц, 16 бит)
Язык : English
Default : Нет
Forced : Нет

Текст #1
Идентификатор : 8
Формат : UTF-8
Идентификатор кодека : S_TEXT/UTF8
Идентификатор кодека/Информация : UTF-8 Plain Text
Заголовок : Русские
Язык : Russian
Default : Нет
Forced : Нет

Текст #2
Идентификатор : 9
Формат : UTF-8
Идентификатор кодека : S_TEXT/UTF8
Идентификатор кодека/Информация : UTF-8 Plain Text
Заголовок : Английские
Язык : English
Default : Нет
Forced : Нет

Меню
00:00:00.000 : en:00:00:00.000
00:04:21.177 : en:00:04:21.177
00:10:09.481 : en:00:10:09.481
00:24:43.855 : en:00:24:43.855
00:36:47.246 : en:00:36:47.246
00:49:32.260 : en:00:49:32.260
00:59:55.717 : en:00:59:55.717
01:10:44.029 : en:01:10:44.029
01:20:13.850 : en:01:20:13.850
01:34:01.091 : en:01:34:01.091
Скриншоты




Скачать The.Seventh.Sign.1988.1080p.mkv.torrent

просмотры: 3

Post Comment