Телевизор

К 80-летию Владимира Высоцкого. В гости к Богу не бывает опозданий (2018) HDTV 1080i от NNMClub

Информация о фильме
Название: К 80-летию Владимира Высоцкого «В гости к Богу не бывает опозданий…»
Год выхода: 2018
Жанр: Документальный
Режиссер: Александр Рогаткин

О фильме:
25 января 2018 года Владимиру Высоцкому исполнилось бы 80 лет. Представить его стариком невозможно! Кем он был – борцом, бунтарем, антисоветчиком или гением, встроенным в систему? Бардом или по-настоящему большим поэтом уровня Маяковского, Есенина, Бродского?
Малоизвестные факты, уникальный видеоматериал и необычные точки зрения.

Официальный сайт

Страна: Россия
Студия: ВГТРК, Россия 1 HD
Продолжительность: 00:57:07
Перевод: Не требуется

Файл
Кодек: h.264
Качество: HDTV 1080i
Видео: AVC MPEG-4, 1920×1080 (16:9), ~10.3 Mbps, 50 fps
Звук: AAC, 2 ch, 510 Kbps

Mediainfo

General
Unique ID : 314692132832293050820575227736841108720 (0xECBF800C5A2AEAEBE02FF60A23EDBCF0)
Complete name : D:FilmК 80-летию Владимира Высоцкого.mkv
Format : Matroska
Format version : Version 4 / Version 2
File size : 4.32 GiB
Duration : 57 min 7 s
Overall bit rate : 10.8 Mb/s
Encoded date : UTC 2018-01-27 09:43:36
Writing application : mkvmerge v20.0.0 ('I Am The Sun') 64-bit
Writing library : libebml v1.3.5 + libmatroska v1.4.8
Cover : Yes
Attachments : cover.png

Video
ID : 1
Format : AVC
Format/Info : Advanced Video Codec
Format profile : [email protected]
Format settings : CABAC / 4 Ref Frames
Format settings, CABAC : Yes
Format settings, RefFrames : 4 frames
Format settings, GOP : N=1
Codec ID : V_MPEG4/ISO/AVC
Duration : 57 min 7 s
Bit rate : 10.3 Mb/s
Width : 1 920 pixels
Height : 1 080 pixels
Display aspect ratio : 16:9
Frame rate mode : Variable
Frame rate : 50.000 FPS
Original frame rate : 25.000 FPS
Standard : Component
Color space : YUV
Chroma subsampling : 4:2:0
Bit depth : 8 bits
Scan type : Interlaced
Scan type, store method : Separated fields
Scan order : Top Field First
Bits/(Pixel*Frame) : 0.100
Stream size : 4.12 GiB (95%)
Language : Russian
Default : Yes
Forced : No
Color range : Limited
Color primaries : BT.709
Transfer characteristics : BT.709
Matrix coefficients : BT.709

Audio
ID : 2
Format : AAC
Format/Info : Advanced Audio Codec
Format profile : LC
Codec ID : A_AAC-2
Duration : 57 min 7 s
Bit rate : 510 kb/s
Channel(s) : 2 channels
Channel positions : Front: L R
Sampling rate : 44.1 kHz
Frame rate : 43.066 FPS (1024 SPF)
Compression mode : Lossy
Delay relative to video : 138 ms
Stream size : 208 MiB (5%)
Language : Russian
Default : Yes
Forced : No

Скриншоты

Релиз от: NNMClub


Скачать K_80-letiyu_Vladimira_Vysotskogo_HDTV_1080i.torrent

просмотры: 3

Post Comment