Вестерн Зарубежные фильмы

Выживший / The Revenant (2015) UHD BDRemux 2160p от ExKinoRay | 4K | HDR | D, A | Лицензия

Информация о фильме
Название: Выживший
Оригинальное название: The Revenant
Год выхода: 2015
Жанр: Триллер, драма, приключения, вестерн
Режиссер: Алехандро Гонсалес Иньярриту
В ролях: Леонардо ДиКаприо, Том Харди, Донал Глисон, Уилл Поултер, Пол Андерсон, Лукас Хаас, Брэд Картер, Кристоффер Йонер, Брендан Флетчер, Хавьер Ботет, Кори Грим, Роберт Молони, Винсент Леклерк, Джошуа Бёрдж, МакКалеб Барнетт, Рэй Чейз, Тимоти Лайл, Эдриан Макморран, Дэйв Бурчилл, Майкл Виллар

О фильме:
Мало кто понимает значение фразы «рок судьбы». А в этом ведь и главный нерв киноленты. Жизнь охотника Хью Гласса изначально была тяжелой. Навалы индейцев, ужасные погодные условия сделали его поистинне виносливым и готовым к разным бедствиям. Ощущается, что он многое повидал на своем пути. Но был ли готов к такому? После жестокого растерзания гризли в нем умерло все живое. Боль, боль и ще раз боль пронизывает все его тело. Напарник Джон Фицжеральд полностью убив в себе человека, бросил его на произвол. Как Хью удалось выжить?

Страна: США
Студия: Anonymous Content, Appian Way, New Regency Pictures, RatPac Entertainment, Soho VFX
Продолжительность: 02:36:21
Перевод(ы):
#1: Дублированный | Лицензия
#2: Авторский | Сербин
#3: Авторский | Есарев

Файл
Качество: BDRemux 2160p
Видео: MPEG-H HEVC HDR Video, 3840×2160, 36.9 Mbit/s, 23.976 fps
Звук:
Аудио #01: 48 kHz, DTS, 5.1, 768 Kbps | Дублированный | RUS |
Аудио #02: 48 kHz, AC3, 5.1, 448 Kbps | Дублированный | RUS |
Аудио #03: 48 kHz, AC3, 5.1, 640 Kbps | Авторский | RUS |
Аудио #04: 48 kHz, DTS-HD MA, 7.1, 4646 Kbps | Авторский | RUS |
Аудио #05: 48 kHz, DTS-HD MA, 7.1, 4606 Kbps | Оригинал | ENG |
Субтитры: Русские (forced, full), английские

MI
General
Unique ID : 231719315575023857449082135126336603526 (0xAE538450AAD48F85BF7B63DE7FE40586)
Complete name : G:VideoSSDThe.Revenant.2015.BDREMUX.2160p.4K.UltraHD.HEVC.HDR.ExKinoRay.mkv
Format : Matroska
Format version : Version 4 / Version 2
File size : 52.4 GiB
Duration : 2 h 36 min
Overall bit rate : 47.9 Mb/s
Movie name : The Revenant 2015 from ExKinoRay
Encoded date : UTC 2017-12-12 07:33:33
Writing application : mkvmerge v18.0.0 ('Apricity') 64-bit
Writing library : libebml v1.3.5 + libmatroska v1.4.8

Video
ID : 1
Format : HEVC
Format/Info : High Efficiency Video Coding
Format profile : Main [email protected]@High
Codec ID : V_MPEGH/ISO/HEVC
Duration : 2 h 36 min
Bit rate : 36.9 Mb/s
Width : 3 840 pixels
Height : 2 160 pixels
Display aspect ratio : 16:9
Frame rate mode : Constant
Frame rate : 23.976 (24000/1001) FPS
Color space : YUV
Chroma subsampling : 4:2:0 (Type 2)
Bit depth : 10 bits
Bits/(Pixel*Frame) : 0.186
Stream size : 40.3 GiB (77%)
Language : English
Default : Yes
Forced : No
Color range : Limited
Color primaries : BT.2020
Transfer characteristics : PQ
Matrix coefficients : BT.2020 non-constant
Mastering display color pri : R: x=0.680000 y=0.320000, G: x=0.265000 y=0.690000, B: x=0.150000 y=0.060000, White point: x=0.312700 y=0.329000
Mastering display luminance : min: 0.0000 cd/m2, max: 1000.0000 cd/m2

Audio #1
ID : 2
Format : DTS
Format/Info : Digital Theater Systems
Mode : 16
Format settings, Endianness : Big
Codec ID : A_DTS
Duration : 2 h 36 min
Bit rate mode : Constant
Bit rate : 768 kb/s
Channel(s) : 6 channels
Channel positions : Front: L C R, Side: L R, LFE
Sampling rate : 48.0 kHz
Frame rate : 93.750 FPS (512 SPF)
Bit depth : 24 bits
Compression mode : Lossy
Stream size : 859 MiB (2%)
Title : Dub [License]
Language : Russian
Default : Yes
Forced : No

Audio #2
ID : 3
Format : AC-3
Format/Info : Audio Coding 3
Format settings, Endianness : Big
Codec ID : A_AC3
Duration : 2 h 36 min
Bit rate mode : Constant
Bit rate : 448 kb/s
Channel(s) : 6 channels
Channel positions : Front: L C R, Side: L R, LFE
Sampling rate : 48.0 kHz
Frame rate : 31.250 FPS (1536 SPF)
Bit depth : 16 bits
Compression mode : Lossy
Stream size : 501 MiB (1%)
Title : Dub [License]
Language : Russian
Service kind : Complete Main
Default : No
Forced : No

Audio #3
ID : 4
Format : AC-3
Format/Info : Audio Coding 3
Format settings, Endianness : Big
Codec ID : A_AC3
Duration : 2 h 36 min
Bit rate mode : Constant
Bit rate : 640 kb/s
Channel(s) : 6 channels
Channel positions : Front: L C R, Side: L R, LFE
Sampling rate : 48.0 kHz
Frame rate : 31.250 FPS (1536 SPF)
Bit depth : 16 bits
Compression mode : Lossy
Stream size : 716 MiB (1%)
Title : AVO [Serbin]
Language : Russian
Service kind : Complete Main
Default : No
Forced : No

Audio #4
ID : 5
Format : DTS
Format/Info : Digital Theater Systems
Format profile : MA / Core
Mode : 16
Format settings, Endianness : Big
Codec ID : A_DTS
Duration : 2 h 36 min
Bit rate mode : Variable / Constant
Bit rate : 4 646 kb/s / 1 509 kb/s
Channel(s) : 8 channels / 6 channels
Channel positions : Front: L C R, Side: L R, Back: L R, LFE / Front: L C R, Side: L R, LFE
Sampling rate : 48.0 kHz
Frame rate : 93.750 FPS (512 SPF)
Bit depth : 24 bits
Compression mode : Lossless / Lossy
Stream size : 5.07 GiB (10%)
Title : AVO [Yesarev]
Language : Russian
Default : No
Forced : No

Audio #5
ID : 6
Format : DTS
Format/Info : Digital Theater Systems
Format profile : MA / Core
Mode : 16
Format settings, Endianness : Big
Codec ID : A_DTS
Duration : 2 h 36 min
Bit rate mode : Variable / Constant
Bit rate : 4 606 kb/s / 1 509 kb/s
Channel(s) : 8 channels / 6 channels
Channel positions : Front: L C R, Side: L R, Back: L R, LFE / Front: L C R, Side: L R, LFE
Sampling rate : 48.0 kHz
Frame rate : 93.750 FPS (512 SPF)
Bit depth : 24 bits
Compression mode : Lossless / Lossy
Stream size : 5.03 GiB (10%)
Title : Original
Language : English
Default : No
Forced : No

Text #1
ID : 7
Format : UTF-8
Codec ID : S_TEXT/UTF8
Codec ID/Info : UTF-8 Plain Text
Duration : 2 h 35 min
Bit rate : 5 b/s
Count of elements : 146
Stream size : 6.05 KiB (0%)
Title : Forced
Language : Russian
Default : Yes
Forced : No

Text #2
ID : 8
Format : UTF-8
Codec ID : S_TEXT/UTF8
Codec ID/Info : UTF-8 Plain Text
Duration : 2 h 35 min
Bit rate : 37 b/s
Count of elements : 847
Stream size : 43.0 KiB (0%)
Title : Full
Language : Russian
Default : No
Forced : No

Text #3
ID : 9
Format : UTF-8
Codec ID : S_TEXT/UTF8
Codec ID/Info : UTF-8 Plain Text
Duration : 2 h 20 min
Bit rate : 48 b/s
Count of elements : 974
Stream size : 49.8 KiB (0%)
Title : Full [CoTranslate]
Language : Russian
Default : No
Forced : No

Text #4
ID : 10
Format : UTF-8
Codec ID : S_TEXT/UTF8
Codec ID/Info : UTF-8 Plain Text
Duration : 2 h 25 min
Bit rate : 45 b/s
Count of elements : 974
Stream size : 48.9 KiB (0%)
Title : Full [EgZvor, Polaris198]
Language : Russian
Default : No
Forced : No

Text #5
ID : 11
Format : UTF-8
Codec ID : S_TEXT/UTF8
Codec ID/Info : UTF-8 Plain Text
Duration : 2 h 20 min
Bit rate : 25 b/s
Count of elements : 936
Stream size : 26.5 KiB (0%)
Title : Full
Language : English
Default : No
Forced : No

Text #6
ID : 12
Format : UTF-8
Codec ID : S_TEXT/UTF8
Codec ID/Info : UTF-8 Plain Text
Duration : 2 h 25 min
Bit rate : 30 b/s
Count of elements : 1231
Stream size : 32.4 KiB (0%)
Title : SDH
Language : English
Default : No
Forced : No

Text #7
ID : 13
Format : UTF-8
Codec ID : S_TEXT/UTF8
Codec ID/Info : UTF-8 Plain Text
Duration : 2 h 25 min
Bit rate : 42 b/s
Count of elements : 1275
Stream size : 45.3 KiB (0%)
Title : SDH Colored
Language : English
Default : No
Forced : No

Menu
00:00:00.000 : en:Chapter 1
00:05:04.846 : en:Chapter 2
00:07:58.311 : en:Chapter 3
00:13:18.965 : en:Chapter 4
00:21:10.686 : en:Chapter 5
00:28:21.658 : en:Chapter 6
00:37:07.767 : en:Chapter 7
00:44:00.346 : en:Chapter 8
00:48:14.975 : en:Chapter 9
00:51:42.266 : en:Chapter 10
00:56:51.033 : en:Chapter 11
00:59:50.754 : en:Chapter 12
01:03:31.766 : en:Chapter 13
01:11:52.433 : en:Chapter 14
01:16:36.133 : en:Chapter 15
01:21:22.377 : en:Chapter 16
01:28:31.139 : en:Chapter 17
01:37:29.969 : en:Chapter 18
01:48:44.643 : en:Chapter 19
01:53:08.782 : en:Chapter 20
01:59:05.930 : en:Chapter 21
02:02:56.703 : en:Chapter 22
02:15:45.262 : en:Chapter 23
02:22:51.021 : en:Chapter 24

Релиз от: Автор релиза:
Подпишись на меня, кликни по картинке > :


Скачать The.Revenant.2015.BDREMUX.2160p.4K.UltraHD.HEVC.torrent

просмотры: 8

Post Comment