Драма Зарубежные фильмы

Сила личности / The Power of One (1992) WEB-DL 1080p | P, A

Информация о фильме
Название: Сила личности
Оригинальное название: The Power of One
Год выхода: 1992
Жанр: драма, экранизация
Выпущено: США, Франция, Австралия, Alcor Films, Canal+, Regency Enterprises
Продолжительность: 02:07:05
Перевод: Профессиональный многоголосый, авторский одноголосый
Режиссер: Джон Г. Эвилдсен
В ролях: Стивен Дорфф, Морган Фримен, Дэниел Крэйг, Джон Гилгуд, Фэй Мастерсон, Джон Осборн

О фильме
Экранизация романа Брайса Кортнэя. Герой картины молодой южноафриканский боксер, которого зовут просто Пи-Кей (P.K.). В раннем детстве оставшийся без родительского присмотра Пи-Кей сначала воспитывался в негритянской семье, а затем был отправлен к близкому другу отца — эмигранту из Германии, которого все звали Доктор. Пи-Кею повезло: старшие друзья учили его не стремлению к материальному благополучию, а умению отстаивать собственные приципы и способности заступиться за слабого.

Файл
Качество: WEB-DL 1080p
Видео: MPEG-4 AVC, 1920×1040 (1.85:1), 13100 kbps, 23.976 fps
Аудио 1: Russian: 48 kHz, AC3, 2.0 ch, 192 kbps — MVO, НТВ+
Аудио 2: Russian: 48 kHz, AC3, 2.0 ch, 192 kbps — AVO, Л. Володарский
Аудио 3: Russian: 48 kHz, AC3, 2.0 ch, 192 kbps — AVO, В. Горчаков
Аудио 4: English: 48 kHz, EAC3, 2.0 ch, 224 kbps — Оригинал
Субтитры: Русские, английские, …
Навигация по главам: Есть

Примечание
• Исходник видео WEB-DL Amazon
• Дорога НТВ+ со вставками Горчакова на моменты без перевода
Скриншоты


MediaInfo
Общее
Уникальный идентификатор : 238369675678500760241540843953116033434 (0xB354546220B0CD359E36A5A0DC8A319A)
Полное имя : The.Power.of.One.1992.WEB-DL.1080p.mkv
Формат : Matroska
Версия формата : Version 2
Размер файла : 12,5 Гбайт
Продолжительность : 2 ч. 7 м.
Режим общего битрейта : Переменный
Общий поток : 14,0 Мбит/сек
Дата кодирования : UTC 2018-02-07 09:29:46
Программа кодирования : mkvmerge v5.8.0 ('No Sleep / Pillow') built on Sep 2 2012 15:37:04
Библиотека кодирования : libebml v1.2.3 + libmatroska v1.3.0

Видео
Идентификатор : 1
Формат : AVC
Формат/Информация : Advanced Video Codec
Профиль формата : [email protected]
Параметр CABAC формата : Да
Параметр RefFrames формата : 4 кадра
Идентификатор кодека : V_MPEG4/ISO/AVC
Продолжительность : 2 ч. 7 м.
Вид битрейта : Переменный
Битрейт : 13,0 Мбит/сек
Максимальный битрейт : 15,0 Мбит/сек
Ширина : 1920 пикселей
Высота : 1040 пикселей
Соотношение сторон : 1,85:1
Режим частоты кадров : Постоянный
Частота кадров : 23,976 (24000/1001) кадра/сек
Цветовое пространство : YUV
Субдискретизация насыщенности : 4:2:0
Битовая глубина : 8 бит
Тип развёртки : Прогрессивная
Бит/(Пиксели*Кадры) : 0.271
Размер потока : 11,5 Гбайт (92%)
Default : Да
Forced : Нет
Цветовой диапазон : Limited
Основные цвета : BT.709
Характеристики трансфера : BT.709
Коэффициенты матрицы : BT.709

Аудио #1
Идентификатор : 2
Формат : AC-3
Формат/Информация : Audio Coding 3
Параметр Endianness формата : Big
Идентификатор кодека : A_AC3
Продолжительность : 2 ч. 7 м.
Вид битрейта : Постоянный
Битрейт : 192 Кбит/сек
Каналы : 2 канала
Расположение каналов : Front: L R
Частота : 48,0 КГц
Частота кадров : 31,250 кадров/сек (1536 SPF)
Битовая глубина : 16 бит
Метод сжатия : С потерями
Размер потока : 175 Мбайт (1%)
Заголовок : MVO, НТВ+
Язык : Russian
Default : Да
Forced : Нет

Аудио #2
Идентификатор : 3
Формат : AC-3
Формат/Информация : Audio Coding 3
Параметр Endianness формата : Big
Идентификатор кодека : A_AC3
Продолжительность : 2 ч. 7 м.
Вид битрейта : Постоянный
Битрейт : 192 Кбит/сек
Каналы : 2 канала
Расположение каналов : Front: L R
Частота : 48,0 КГц
Частота кадров : 31,250 кадров/сек (1536 SPF)
Битовая глубина : 16 бит
Метод сжатия : С потерями
Размер потока : 175 Мбайт (1%)
Заголовок : AVO, Л. Володарский
Язык : Russian
Default : Нет
Forced : Нет

Аудио #3
Идентификатор : 4
Формат : AC-3
Формат/Информация : Audio Coding 3
Параметр Endianness формата : Big
Идентификатор кодека : A_AC3
Продолжительность : 2 ч. 7 м.
Вид битрейта : Постоянный
Битрейт : 192 Кбит/сек
Каналы : 2 канала
Расположение каналов : Front: L R
Частота : 48,0 КГц
Частота кадров : 31,250 кадров/сек (1536 SPF)
Битовая глубина : 16 бит
Метод сжатия : С потерями
Размер потока : 175 Мбайт (1%)
Заголовок : AVO, В. Горчаков
Язык : Russian
Default : Нет
Forced : Нет

Аудио #4
Идентификатор : 5
Формат : E-AC-3
Формат/Информация : Enhanced Audio Coding 3
Параметр Endianness формата : Big
Идентификатор кодека : A_EAC3
Продолжительность : 2 ч. 7 м.
Вид битрейта : Постоянный
Битрейт : 224 Кбит/сек
Каналы : 2 канала
Расположение каналов : Front: L R
Частота : 48,0 КГц
Частота кадров : 187,500 кадров/сек (256 SPF)
Метод сжатия : С потерями
Размер потока : 204 Мбайт (2%)
Заголовок : Original
Язык : English
Default : Нет
Forced : Нет

Текст #1
Идентификатор : 6
Формат : UTF-8
Идентификатор кодека : S_TEXT/UTF8
Идентификатор кодека/Информация : UTF-8 Plain Text
Язык : Russian
Default : Нет
Forced : Нет

Текст #2
Идентификатор : 7
Формат : UTF-8
Идентификатор кодека : S_TEXT/UTF8
Идентификатор кодека/Информация : UTF-8 Plain Text
Язык : English
Default : Нет
Forced : Нет

Текст #3
Идентификатор : 8
Формат : UTF-8
Идентификатор кодека : S_TEXT/UTF8
Идентификатор кодека/Информация : UTF-8 Plain Text
Заголовок : English for the Hearing Impaired
Язык : English
Default : Нет
Forced : Нет

Текст #4
Идентификатор : 9
Формат : UTF-8
Идентификатор кодека : S_TEXT/UTF8
Идентификатор кодека/Информация : UTF-8 Plain Text
Заголовок : SDH
Язык : English
Default : Нет
Forced : Нет

Текст #5
Идентификатор : 10
Формат : UTF-8
Идентификатор кодека : S_TEXT/UTF8
Идентификатор кодека/Информация : UTF-8 Plain Text
Язык : Danish
Default : Нет
Forced : Нет

Текст #6
Идентификатор : 11
Формат : UTF-8
Идентификатор кодека : S_TEXT/UTF8
Идентификатор кодека/Информация : UTF-8 Plain Text
Язык : German
Default : Нет
Forced : Нет

Текст #7
Идентификатор : 12
Формат : UTF-8
Идентификатор кодека : S_TEXT/UTF8
Идентификатор кодека/Информация : UTF-8 Plain Text
Язык : Spanish
Default : Нет
Forced : Нет

Текст #8
Идентификатор : 13
Формат : UTF-8
Идентификатор кодека : S_TEXT/UTF8
Идентификатор кодека/Информация : UTF-8 Plain Text
Язык : Finnish
Default : Нет
Forced : Нет

Текст #9
Идентификатор : 14
Формат : UTF-8
Идентификатор кодека : S_TEXT/UTF8
Идентификатор кодека/Информация : UTF-8 Plain Text
Язык : French
Default : Нет
Forced : Нет

Текст #10
Идентификатор : 15
Формат : UTF-8
Идентификатор кодека : S_TEXT/UTF8
Идентификатор кодека/Информация : UTF-8 Plain Text
Язык : Italian
Default : Нет
Forced : Нет

Текст #11
Идентификатор : 16
Формат : UTF-8
Идентификатор кодека : S_TEXT/UTF8
Идентификатор кодека/Информация : UTF-8 Plain Text
Язык : Norwegian Bokmal
Default : Нет
Forced : Нет

Текст #12
Идентификатор : 17
Формат : UTF-8
Идентификатор кодека : S_TEXT/UTF8
Идентификатор кодека/Информация : UTF-8 Plain Text
Язык : Dutch
Default : Нет
Forced : Нет

Текст #13
Идентификатор : 18
Формат : UTF-8
Идентификатор кодека : S_TEXT/UTF8
Идентификатор кодека/Информация : UTF-8 Plain Text
Язык : Polish
Default : Нет
Forced : Нет

Текст #14
Идентификатор : 19
Формат : UTF-8
Идентификатор кодека : S_TEXT/UTF8
Идентификатор кодека/Информация : UTF-8 Plain Text
Язык : Portuguese
Default : Нет
Forced : Нет

Текст #15
Идентификатор : 20
Формат : UTF-8
Идентификатор кодека : S_TEXT/UTF8
Идентификатор кодека/Информация : UTF-8 Plain Text
Язык : Swedish
Default : Нет
Forced : Нет

Меню
00:00:00.000 : en:Sad news
00:10:29.000 : en:PK's vision: Dabula Manzi restores his name
00:14:29.000 : en:Brute force
00:19:44.000 : en:Doc
00:25:43.000 : en:Barberton Prison
00:28:11.000 : en:Geel Piet
00:36:55.000 : en:A rainmaker
00:39:24.000 : en:Sgt. Bormann's boot
00:43:14.000 : en:A concert takes shape
00:49:29.000 : en:Opening remarks…translated
00:52:10.000 : en:The concert begins
00:53:47.000 : en:A free man
00:57:45.000 : en:The key to survival
01:00:06.000 : en:Eye contact
01:03:51.000 : en:A nighttime visit
01:06:12.000 : en:Gruenewald takes PK on
01:10:11.000 : en:Meeting Dr. Marais
01:12:57.000 : en:A boxing challenge
01:24:59.000 : en:An invitation from Maria
01:27:13.000 : en:A morning run full of questions
01:31:30.000 : en:The answer in nature
01:32:50.000 : en:A drop of water
01:34:56.000 : en:"I won't hate like you."
01:42:09.000 : en:Full of animals
01:44:52.000 : en:Daring the opponent
01:51:35.000 : en:"It works."
01:53:32.000 : en:Township under siege
01:56:23.000 : en:Showdown with Botha
01:59:10.000 : en:The voices of Africa
02:00:28.000 : en:Coda and End Credits


Скачать The.Power.of.One.1992.WEB-DL.1080p.mkv.torrent

просмотры: 7

Post Comment