Вестерн Зарубежные фильмы

Семинолы / Seminole (1953) BDRip-AVC | L1

Жанр: Вестерн
Режиссер: Бадд Боттичер
Продюсер: Ховард Кристи
Актеры: Рок Хадсон, Барбара Хейл, Энтони Куинн, Ричард Карлсон, Хью О’Брайан, Расселл Джонсон, Ли Марвин, Ральф Муди, Фэй Руп, Джеймс Бест

Описание:
В 1830 г. президент США Эндрю Джексон подписал Закон о выселении индейцев, согласно которому аборигены были насильственно переселены в специально созданные для них Индейские территории (ныне восток штата Оклахома). Небольшая часть племени семинолов, от 300 до 500 человек, осталась на юге Флориды и оказывала ожесточённое сопротивление армии США, потерявшей в боях около 1500 солдат. Действие фильма происходит в 1838 году, во время 2-ой Cеминольской войны. В центре сюжета судьба и трагедия вождя семинолов Оцеолы…

Производство: США / Universal International Pictures (UI or U-I)
Продолжительность: 01:26:53
Перевод: Любительский одноголосый закадровый (NezPerce)
Субтитры: Отсутствуют
Релиз от: Охрана (NNMCLUB)

Качество видео: BDRip-AVC
Видео: AVC/H.264, 864×632, ~3211 Kbps
Аудио 1: Русский, AC3, 2 ch, 192 Kbps, 48.0 kHz
Аудио 2: Английский, AC3, 2 ch, 192 Kbps, 48.0 kHz

Mediainfo:
General
Unique ID : 212337232128294928915877472803681132688 (0x9FBEA9D261B16D76844FFF52DFE6E090)
Complete name : F:DownloadsСеминолы. 1953. NNMCLUB.mkv
Format : Matroska
Format version : Version 4 / Version 2
File size : 2.18 GiB
Duration : 1h 26mn
Overall bit rate : 3 597 Kbps
Encoded date : UTC 2017-11-22 22:16:19
Writing application : mkvmerge v7.0.0 ('Where We Going') 32bit built on Jun 9 2014 15:08:34
Writing library : libebml v1.3.0 + libmatroska v1.4.1
DURATION : 01:26:53.792000000
NUMBER_OF_FRAMES : 162931
NUMBER_OF_BYTES : 125131008
_STATISTICS_WRITING_APP : mkvmerge v7.0.0 ('Where We Going') 32bit built on Jun 9 2014 15:08:34
_STATISTICS_WRITING_DATE_UTC : 2017-11-22 22:16:19
_STATISTICS_TAGS : BPS DURATION NUMBER_OF_FRAMES NUMBER_OF_BYTES

Video
ID : 1
Format : AVC
Format/Info : Advanced Video Codec
Format profile : [email protected]
Format settings, CABAC : Yes
Format settings, ReFrames : 9 frames
Codec ID : V_MPEG4/ISO/AVC
Duration : 1h 26mn
Bit rate : 3 211 Kbps
Width : 864 pixels
Height : 632 pixels
Display aspect ratio : 4:3
Frame rate mode : Constant
Frame rate : 23.976 fps
Color space : YUV
Chroma subsampling : 4:2:0
Bit depth : 8 bits
Scan type : Progressive
Bits/(Pixel*Frame) : 0.245
Stream size : 1.91 GiB (87%)
Title : Seminole
Writing library : x264 core 125 r2208 d9d2288
Encoding settings : cabac=1 / ref=9 / deblock=1:-1:-1 / analyse=0x3:0x133 / me=umh / subme=10 / psy=1 / psy_rd=1.00:0.10 / mixed_ref=1 / me_range=32 / chroma_me=1 / trellis=2 / 8x8dct=1 / cqm=0 / deadzone=21,11 / fast_pskip=0 / chroma_qp_offset=-3 / threads=6 / lookahead_threads=1 / sliced_threads=0 / nr=0 / decimate=0 / interlaced=0 / bluray_compat=0 / constrained_intra=0 / bframes=7 / b_pyramid=2 / b_adapt=2 / b_bias=0 / direct=3 / weightb=1 / open_gop=0 / weightp=2 / keyint=250 / keyint_min=25 / scenecut=40 / intra_refresh=0 / rc_lookahead=60 / rc=2pass / mbtree=1 / bitrate=3211 / ratetol=1.0 / qcomp=0.60 / qpmin=0 / qpmax=69 / qpstep=4 / cplxblur=20.0 / qblur=0.5 / ip_ratio=1.40 / aq=1:1.00
Language : English
Default : Yes
Forced : No

Audio #1
ID : 2
Format : AC-3
Format/Info : Audio Coding 3
Mode extension : CM (complete main)
Format settings, Endianness : Big
Codec ID : A_AC3
Duration : 1h 26mn
Bit rate mode : Constant
Bit rate : 192 Kbps
Channel(s) : 2 channels
Channel positions : Front: L R
Sampling rate : 48.0 KHz
Bit depth : 16 bits
Compression mode : Lossy
Stream size : 119 MiB (5%)
Title : Одноголосый закадровый, NezPerce
Language : Russian
Default : Yes
Forced : No

Audio #2
ID : 3
Format : AC-3
Format/Info : Audio Coding 3
Mode extension : CM (complete main)
Format settings, Endianness : Big
Codec ID : A_AC3
Duration : 1h 26mn
Bit rate mode : Constant
Bit rate : 192 Kbps
Channel(s) : 2 channels
Channel positions : Front: L R
Sampling rate : 48.0 KHz
Bit depth : 16 bits
Compression mode : Lossy
Stream size : 119 MiB (5%)
Title : Английский
Language : English
Default : No
Forced : No
Скриншоты


Скачать Seminolyi._1953.mkv.torrent

просмотры: 4

Post Comment