Детектив Зарубежные фильмы

Прежде чем я усну / Before I Go to Sleep (2014) BDRip-AVC от ExKinoRay | D

Информация о фильме
Название: Прежде чем я усну
Оригинальное название: Before I Go to Sleep
Год выхода: 2014
Жанр: Триллер, детектив, драма
Режиссер: Роуэн Жоффе / Rowan Joffe
В ролях: Николь Кидман, Колин Фёрт, Марк Стронг, Бен Кромптон, Энн-Мэри Дафф, Адам Леви, Гэбриел Стронг, Флинн МакАртур, Дин-Чарльз Чепмен, Ханна Блэмайерс

О фильме :
Каждое утро Кристин начинается с чистого листа – в результате аварии женщина потеряла способность к долгосрочной памяти и помнит лишь события текущего дня. Терпеливый любящий муж Бен каждое утро заново рассказывает Кристин об их встрече, знакомстве, свадьбе и аварии, женщине остается лишь довериться человеку, который не оставил ее в столь тяжелом недуге. Однако историей болезни Кристин внезапно интересуется нейропсихолог доктор Нэш, он предлагает Кристин необычный способ развивать память – каждый день женщина записывает видеообращение к самой себе, где делится своими мыслями о происходящем. Буквально за две недели Кристин приходит к выводу, что в ее жизни с Беном до аварии и после слишком много белых пятен…

Страна: Великобритания, Франция, Швеция, Clarius Entertainment, Scott Free Productions, Millennium Films
Продолжительность: 01:28:17
Перевод: Профессиональный (полное дублирование)

Файл
Формат: MKV
Качество: BDRip-AVC (BDRemux 1080p Rus Transfer)
Видео: MPEG-4 AVC, 784×328, ~ 1103 Кбит/с
Аудио: AAC-LC, 2 ch, ~ 76 Кбит/с
Субтитры: Нет

MI
Общее
Уникальный идентификатор : 208641381349251827076972973363372940853 (0x9CF6DE4F52DFF856B759545AB752DE35)
Полное имя : D:MOVIESPrezhde.chem.ya.usnu.2014.ExKinoRay.mkv
Формат : Matroska
Версия формата : Version 4 / Version 2
Размер файла : 745 Мбайт
Продолжительность : 1 ч. 28 м.
Общий поток : 1179 Кбит/сек
Дата кодирования : UTC 2018-01-30 15:06:02
Программа кодирования : mkvmerge v15.0.0 ('Duel with the Devil') 64-bit
Библиотека кодирования : libebml v1.3.5 + libmatroska v1.4.5

Видео
Идентификатор : 1
Формат : AVC
Формат/Информация : Advanced Video Codec
Профиль формата : [email protected]
Параметр CABAC формата : Да
Параметр RefFrames формата : 10 кадров
Идентификатор кодека : V_MPEG4/ISO/AVC
Продолжительность : 1 ч. 28 м.
Битрейт : 1103 Кбит/сек
Ширина : 784 пикселя
Высота : 328 пикселей
Соотношение сторон : 2,40:1
Режим частоты кадров : Постоянный
Частота кадров : 25,000 кадров/сек
Цветовое пространство : YUV
Субдискретизация насыщенности : 4:2:0
Битовая глубина : 8 бит
Тип развёртки : Прогрессивная
Бит/(Пиксели*Кадры) : 0.172
Размер потока : 695 Мбайт (93%)
Библиотека кодирования : x264 core 152 r2851 ba24899
Настройки программы : cabac=1 / ref=10 / deblock=1:-3:-3 / analyse=0x3:0x133 / me=umh / subme=11 / psy=1 / psy_rd=1.00:0.08 / mixed_ref=1 / me_range=32 / chroma_me=1 / trellis=2 / 8x8dct=1 / cqm=0 / deadzone=21,11 / fast_pskip=0 / chroma_qp_offset=-3 / threads=6 / lookahead_threads=1 / sliced_threads=0 / nr=0 / decimate=0 / interlaced=0 / bluray_compat=0 / constrained_intra=0 / bframes=10 / b_pyramid=2 / b_adapt=2 / b_bias=0 / direct=3 / weightb=1 / open_gop=0 / weightp=2 / keyint=250 / keyint_min=24 / scenecut=40 / intra_refresh=0 / rc_lookahead=40 / rc=2pass / mbtree=0 / bitrate=1103 / ratetol=1.0 / qcomp=0.60 / qpmin=0 / qpmax=69 / qpstep=4 / cplxblur=20.0 / qblur=0.5 / vbv_maxrate=50000 / vbv_bufsize=62500 / nal_hrd=none / filler=0 / ip_ratio=1.40 / pb_ratio=1.30 / aq=1:1.00
Default : Да
Forced : Нет

Аудио
Идентификатор : 2
Формат : AAC
Формат/Информация : Advanced Audio Codec
Профиль формата : LC
Идентификатор кодека : A_AAC
Продолжительность : 1 ч. 28 м.
Битрейт : 76,0 Кбит/сек
Каналы : 2 канала
Расположение каналов : Front: L R
Частота : 48,0 КГц
Частота кадров : 46,875 кадров/сек (1024 SPF)
Метод сжатия : С потерями
Задержка видео : 9 мс.
Размер потока : 48,0 Мбайт (6%)
Default : Да
Forced : Нет

Меню
00:00:00.000 : en:Chapter 01
00:08:17.880 : en:Chapter 02
00:13:38.960 : en:Chapter 03
00:21:28.400 : en:Chapter 04
00:26:07.200 : en:Chapter 05
00:32:57.280 : en:Chapter 06
00:37:16.880 : en:Chapter 07
00:45:38.560 : en:Chapter 08
00:52:28.360 : en:Chapter 09
01:01:47.600 : en:Chapter 10
01:05:44.240 : en:Chapter 11
01:15:51.120 : en:Chapter 12

Скриншоты

Релиз от:


Скачать Prezhde.chem.ya.usnu.2014.ExKinoRay.mkv.torrent

просмотры: 3

Post Comment