Зарубежные фильмы Криминал

Телефонная будка / Phone Booth (2002) WEB-DL 1080p | D, P, А | Open Matte

Информация о фильме
Название: Телефонная будка
Оригинальное название: Phone Booth
Год выпуска: 2002
Жанр: триллер, криминал, детектив
Режиссер: Джоэл Шумахер
В ролях: Колин Фаррелл (Stu Shepard), Кифер Сазерленд (The Caller), Форест Уитакер (Captain Ramey), Рада Митчелл (Kelly Shepard), Кэти Холмс (Pamela McFadden), Пола Джей Паркер (Felicia), Ариан Эш (Corky), Тиа Тексада (Asia), Джон Инос III (Leon), Ричард Т. Джонс (Sergeant Cole), Кит Ноббс (Adam), Делл Йонт (Pizza Guy)

О фильме:
Один телефонный звонок может изменить всю жизнь человека или даже оборвать ее. Герой фильма Стью Шеферд становится пленником телефонной будки.

Что вы сделаете, если услышите, как в телефонной будке зазвонил телефон? Скорее всего, инстинктивно поднимете трубку, хотя прекрасно знаете, что кто-то просто ошибся номером. Вот и Стью кажется, что на звонок надо обязательно ответить, а в результате он оказывается втянутым в чудовищную игру. «Только положи трубку, и ты — труп», — говорит ему невидимый собеседник.

MPAA: R — Лицам до 17 лет обязательно присутствие взрослого

Страна: США
Студия: Fox 2000 Pictures, Zucker-Netter Productions
Продолжительность: 01:21:10
Перевод: Профессиональный (дублированный) CPIG + Профессиональный (многоголосый, закадровый) x2 + Авторский (одноголосый, закадровый) Ю.Сербин

Файл
Качество: WEB-DL 1080p | Open Matte
Формат: Matroska
Видео: 1920×1080 at 23.976 fps, MPEG-4 AVC, ~13500 kbps avg
Аудио#1: Russian: 48 kHz, AC3, 3/2 (L,C,R,l,r) + LFE ch, ~384 kbps avg |Дубляж, CPIG|
Аудио#2: Russian: 48 kHz, AC3, 3/2 (L,C,R,l,r) + LFE ch, ~384 kbps avg |Многоголосый закадровый|
Аудио#3: Russian: 48 kHz, AC3, 3/2 (L,C,R,l,r) + LFE ch, ~448 kbps avg |Многоголосый закадровый|
Аудио#4: Russian: 48 kHz, AC3, 3/2 (L,C,R,l,r) + LFE ch, ~448 kbps avg |Авторский, Ю.Сербин|
Аудио#5: English: 48 kHz, AC3, 3/2 (L,C,R,l,r) + LFE ch, ~640 kbps avg
Субтитры: Russian, English

***Сохранены и подписаны оригинальные главы.
***Исходник видео — Amazon [spartanec163].

Знаете ли вы, что…

  • В сцене, когда снайпер рассказывает Стью о том, как он следил за ним, можно увидеть Сазерленда, идущего за жертвой в тёмной шерстяной шапочке.
  • Главная роль могла достаться Джиму Керри, Уиллу Смиту, Мэлу Гибсону и Тони Кертису.
  • Майкл Бэй мог стать режиссером фильма.
  • Фильм частично основан на короткометражке студента «Нью-Йоркского университета» «End of the Line» (1996).
  • Премьера фильма в США должна была состояться 15 ноября 2002 года. Однако после трагических событий в Мэрилэнде и Вашингтоне студия решила перенести премьеру. Картина вышла в американский прокат 4 апреля 2003 года.
  • В 1960-х гг. Ларри Коэн предлагал концепцию фильма (всё действие происходит внутри телефонной будки) Альфреду Хичкоку. Хичкоку понравилась идея, но ни он, ни Коэн так и не смогли придумать убедительной причины, почему главный герой не может покинуть телефонную будку. Коэн вернулся к сценарию в конце 1990-х, тогда же он и придумал идею со снайпером.
  • Ларри Коэн написал сценарий фильма за один месяц.
  • Игрушечный робот говорит на суахили.
  • Предположительно телефонная будка находится в северной части 53-ей западной улицы (West 53rd Street) между Бродвеем и Восьмой авеню.
  • В Ирландии фильм вышел под названием «Phone Box».
  • Все сцены были сняты в точно таком же порядке, что и в фильме.
  • Съёмочный период составил 12 дней. Съёмки сцен внутри телефонной будки заняли 10 дней, 2 дня ушло на съёмки сцен, происходящих вне телефонной будки.
  • Кадр с Кэти Холмс в ресторане был снят в перерыве между дублями. Режиссеру понравился её взгляд, и он решил добавить данный эпизод в фильм.
  • У всех актеров были небольшие наушники и радиомикрофоны, для того, чтобы все присутствующие на съёмочной площадке могли знать, что в то же самое время делают другие персонажи фильма.
  • Массовке специально не сказали, о чём данный фильм, и что будет происходить в той или иной сцене, поэтому реакция большинства людей на происходящее подлинная.
  • Джаред Лето исполнил небольшую роль, но сцена с его участием была вырезана из фильма.
  • Действие фильма происходит в реальном времени — он длится ровно столько, сколько длятся описываемые в нём события.
  • События фильма происходят в Нью-Йорке, а на самом деле фильм снимали в Лос-Анджелесе.
  • Сцена, где мы неотчетливо видим снайпера, изначально была снята с участием Рона Элдарда, а затем переснята с Кифером Сазерлендом.
  • Кифер Сазерленд исполнил роль снайпера, но его персонаж отсутствовал на постерах.
  • Сцена, в которой Стью признается в своих грехах, была снята с первого дубля. Сразу же после команды «снято», съёмочная группа устроила бурную овацию в адрес Колина Фаррелла.
  • Телефон работал на самом деле, и Колин Фаррелл по-настоящему разговаривал с кем-то, читавшим роль снайпера. Однако, голос Кифера Сазерленда был записан лишь на стадии пост-продакшна.
  • Несмотря на то, что в фильме Кифер Сазерленд появляется менее чем на три минуты, на постерах и в титрах его фамилия идет второй по счету. Однако его голос мы слышим на протяжении всего фильма.
  • Снайперская винтовка маньяка (показана на мгновение в конце фильма) — «Accuracy International AE». На ней установлен оптический прицел «Hensholdt» с подсветкой перекрестья.
  • Blu-ray vs Open Matte
    http://screenshotcomparison.com/comparison/130318
    MediaInfo
    Общее
    Уникальный идентификатор : 253365643305916324931574278576176162046 (0xBE9C72ABAEEFC80F8FEB3B5F4644E4FE)
    Полное имя : Телефонная будка.mkv
    Формат : Matroska
    Версия формата : Version 4 / Version 2
    Размер файла : 8,94 Гбайт
    Продолжительность : 1 ч. 21 м.
    Режим общего битрейта : Переменный
    Общий поток : 15,8 Мбит/сек
    Название фильма : Phone.Booth.2002.Open.Matte.1080p.WEB-DL.DD+5.1.H.264-spartanec163
    Дата кодирования : UTC 2018-01-23 21:34:34
    Программа кодирования : mkvmerge v12.0.0 ('Trust / Lust') 32bit
    Библиотека кодирования : libebml v1.3.4 + libmatroska v1.4.5

    Видео
    Идентификатор : 1
    Формат : AVC
    Формат/Информация : Advanced Video Codec
    Профиль формата : [email protected]
    Параметр CABAC формата : Да
    Параметр ReFrames формата : 4 кадра
    Идентификатор кодека : V_MPEG4/ISO/AVC
    Продолжительность : 1 ч. 21 м.
    Вид битрейта : Переменный
    Битрейт : 13,1 Мбит/сек
    Максимальный битрейт : 15,0 Мбит/сек
    Ширина : 1920 пикселей
    Высота : 1080 пикселей
    Соотношение сторон : 16:9
    Режим частоты кадров : Постоянный
    Частота кадров : 23,976 кадра/сек
    Цветовое пространство : YUV
    Субдискретизация насыщенности : 4:2:0
    Битовая глубина : 8 бит
    Тип развёртки : Прогрессивная
    Бит/(Пиксели*Кадры) : 0.264
    Размер потока : 7,46 Гбайт (83%)
    Заголовок : Телефонная будка (2002)
    Язык : English
    Default : Да
    Forced : Нет
    Основные цвета : BT.709
    Характеристики трансфера : BT.709
    Коэффициенты матрицы : BT.709

    Аудио #1
    Идентификатор : 2
    Формат : AC-3
    Формат/Информация : Audio Coding 3
    Расширение режима : CM (complete main)
    Параметр Endianness формата : Big
    Идентификатор кодека : A_AC3
    Продолжительность : 1 ч. 21 м.
    Вид битрейта : Постоянный
    Битрейт : 384 Кбит/сек
    Каналы : 6 каналов
    Расположение каналов : Front: L C R, Side: L R, LFE
    Частота : 48,0 КГц
    Битовая глубина : 16 бит
    Метод сжатия : С потерями
    Размер потока : 223 Мбайт (2%)
    Заголовок : AC3 (Дублированный) CPIG
    Язык : Russian
    Default : Да
    Forced : Нет

    Аудио #2
    Идентификатор : 3
    Формат : AC-3
    Формат/Информация : Audio Coding 3
    Расширение режима : CM (complete main)
    Параметр Endianness формата : Big
    Идентификатор кодека : A_AC3
    Продолжительность : 1 ч. 21 м.
    Вид битрейта : Постоянный
    Битрейт : 384 Кбит/сек
    Каналы : 6 каналов
    Расположение каналов : Front: L C R, Side: L R, LFE
    Частота : 48,0 КГц
    Битовая глубина : 16 бит
    Метод сжатия : С потерями
    Размер потока : 223 Мбайт (2%)
    Заголовок : AC3 (Многоголосый) 1
    Язык : Russian
    Default : Нет
    Forced : Нет

    Аудио #3
    Идентификатор : 4
    Формат : AC-3
    Формат/Информация : Audio Coding 3
    Расширение режима : CM (complete main)
    Параметр Endianness формата : Big
    Идентификатор кодека : A_AC3
    Продолжительность : 1 ч. 21 м.
    Вид битрейта : Постоянный
    Битрейт : 448 Кбит/сек
    Каналы : 6 каналов
    Расположение каналов : Front: L C R, Side: L R, LFE
    Частота : 48,0 КГц
    Битовая глубина : 16 бит
    Метод сжатия : С потерями
    Размер потока : 260 Мбайт (3%)
    Заголовок : AC3 (Многоголосый) 2
    Язык : Russian
    Default : Нет
    Forced : Нет

    Аудио #4
    Идентификатор : 5
    Формат : AC-3
    Формат/Информация : Audio Coding 3
    Расширение режима : CM (complete main)
    Параметр Endianness формата : Big
    Идентификатор кодека : A_AC3
    Продолжительность : 1 ч. 21 м.
    Вид битрейта : Постоянный
    Битрейт : 448 Кбит/сек
    Каналы : 6 каналов
    Расположение каналов : Front: L C R, Side: L R, LFE
    Частота : 48,0 КГц
    Битовая глубина : 16 бит
    Метод сжатия : С потерями
    Размер потока : 260 Мбайт (3%)
    Заголовок : AC3 (Одноголосый) Ю. Сербин
    Язык : Russian
    Default : Нет
    Forced : Нет

    Аудио #5
    Идентификатор : 6
    Формат : AC-3
    Формат/Информация : Audio Coding 3
    Расширение режима : CM (complete main)
    Параметр Endianness формата : Big
    Идентификатор кодека : A_AC3
    Продолжительность : 1 ч. 21 м.
    Вид битрейта : Постоянный
    Битрейт : 640 Кбит/сек
    Каналы : 6 каналов
    Расположение каналов : Front: L C R, Side: L R, LFE
    Частота : 48,0 КГц
    Битовая глубина : 16 бит
    Метод сжатия : С потерями
    Задержка видео : 10 с.
    Размер потока : 372 Мбайт (4%)
    Заголовок : AC3 (Оригинал)
    Язык : English
    Default : Нет
    Forced : Нет

    Текст #1
    Идентификатор : 7
    Формат : UTF-8
    Идентификатор кодека : S_TEXT/UTF8
    Идентификатор кодека/Информация : UTF-8 Plain Text
    Заголовок : Русские
    Язык : Russian
    Default : Нет
    Forced : Нет

    Текст #2
    Идентификатор : 8
    Формат : UTF-8
    Идентификатор кодека : S_TEXT/UTF8
    Идентификатор кодека/Информация : UTF-8 Plain Text
    Заголовок : Английские
    Язык : English
    Default : Нет
    Forced : Нет

    Меню
    00:00:00.000 : en:Studio Logo
    00:00:35.000 : en:Opening Credits
    00:00:58.000 : en:Prologue; Space and Times Square
    00:03:56.000 : en:Stu wheels and deals; Times Square
    00:09:03.000 : en:A pizza man interrupts Stu while he makes a call
    00:10:37.000 : en:Stu calls Pam and invites her to the City Hotel; Phone booth and restaurant
    00:11:59.000 : en:Stu receives a mysterious phone call; Phone booth
    00:14:27.000 : en:The Caller rings again and wants Stu to confess to Pam and Kelly
    00:22:52.000 : en:The Caller warns Stu of his intentions if he does not obey
    00:25:19.000 : en:Leon and the hookers gang up on Stu; Phone booth
    00:29:14.000 : en:Stu tries to call for help; Phone booth
    00:32:14.000 : en:The police come to arrest Stu; Phone booth and street
    00:39:42.000 : en:Reporters arrive to cover the story; City streets and phone booth
    00:42:47.000 : en:Kelly arrives and Stu tries to protect her; Phone booth and street
    00:49:54.000 : en:Stu tells Kelly about the other woman in his life; Phone booth and street
    00:52:21.000 : en:Capt. Ramey suspects Stu is being controlled; Street and phone booth
    00:54:25.000 : en: Stu is the patsy for the Leon's death; Phone booth and street
    01:00:03.000 : en:Stu bares his heart to Kelly and the public; Phone booth and street
    01:08:27.000 : en:Stu takes a stand, ESU moves in on The Caller
    01:12:44.000 : en:Epilogue; Ambulance and crime scene
    01:15:17.000 : en:End Credits
    Скриншоты


    Скачать Phone.Booth.2002.Open.Matte.1080p.mkv.torrent

    просмотры: 3

    Post Comment