Военный Зарубежные фильмы

Дюнкерк / Dunkirk (2017) DVD5 | IMAX

«Событие, которое изменило мир»

Год выпуска: 2017
Производство: Великобритания, Нидерланды, Франция, США / Warner Bros. Pictures, Syncopy, RatPac-Dune Entertainment
Жанр: Военный, драма, история

Режиссер: Кристофер Нолан
Продюсеры: Джон Бернард, Эрвин Годшалк, Джэйк Майерс
Актеры: Финн Уайтхед, Том Глинн-Карни, Джек Лауден, Гарри Стайлс, Анайрин Барнард, Том Харди, Джеймс Д’Арси, Барри Кеоган, Кеннет Брана, Киллиан Мёрфи, Марк Райлэнс

Описание:
Фильм расскажет историю чудесного спасения более трехсот тысяч солдат в ходе Дюнкеркской операции, имевшей место в начале Второй мировой войны. События начинаются с окружения сотен тысяч британских и союзных войск силами противника. Пойманные в ловушку на пляже, и находясь спиной к морю, они сталкиваются лицом к лицу с неразрешимой ситуацией, тем временем как тиски противника сжимаются все сильнее и сильнее.

Перевод: Дублированный
Субтитры: Английские, русские


Дата мировой премьеры: 13 июля 2017
Дата российской премьеры: 20 июля 2017, «Каро-Премьер»


Продолжительность: 01:42:16
Качество видео: DVD5

Видео: MPEG-2, 720×[email protected]×576 (PAL 16:9), ~5200 Кбит/сек
Аудио 1: AC3 5.1, 384 Кбит/сек [Английский — оригинал]
Аудио 2: AC3 5.1, 448 Кбит/сек [Русский — дублированный]

DVDInfo:
Title: Dunkirk (2017) DVD5 PAL
Size: 4.37 Gb ( 4 580 008 KBytes ) — DVD-5
Enabled regions: 1, 2, 3, 4, 5, 6, 7, 8

VTS_01 :
Play Length: 01:42:16
Video: PAL 16:9 (720×576) VBR, Auto Pan&Scan
Audio:
English (Dolby AC3, 6 ch)
Russian (Dolby AC3, 6 ch)
Subtitles:
English
Russian
Russian

Menu Video:
PAL 16:9 (720×576) VBR
Auto Letterboxed
Menu Subtitles:
Not specified
Menu Language Unit :
Root Menu
MediaInfo:
Видео
Идентификатор : 224 (0xE0)
Формат : MPEG Video
Версия формата : Version 2
Профиль формата : [email protected]
Настройки формата : CustomMatrix / BVOP
Параметр BVOP формата : Да
Параметр матрицы формата : Выборочная
Параметр GOP формата : Variable
Продолжительность : 23 м. 9 с.
Вид битрейта : Переменный
Битрейт : 5226 Кбит/сек
Максимальный битрейт : 7811 Кбит/сек
Ширина : 720 пикселей
Высота : 576 пикселей
Соотношение сторон : 16:9
Частота кадров : 25,000 кадров/сек
Стандарт вещания : PAL
Цветовое пространство : YUV
Субдискретизация насыщенности : 4:2:0
Битовая глубина : 8 бит
Тип развёртки : Прогрессивная
Порядок развёртки : Верхнее поле первое
Метод сжатия : С потерями
Бит/(Пиксели*Кадры) : 0.504
Временной код первого кадра : 00:00:00:00
Оригинал временного кода : Group of pictures header
GOP, открыто/закрыто : Открыто
GOP, открыто/закрыто на первом кадре : Закрыто
Размер потока : 866 Мбайт (85%)

Аудио #1
Идентификатор : 189 (0xBD)-128 (0x80)
Формат : AC-3
Формат/Информация : Audio Coding 3
Параметр Endianness формата : Big
Режим смешивания : DVD-Video
Продолжительность : 23 м. 9 с.
Вид битрейта : Постоянный
Битрейт : 384 Кбит/сек
Каналы : 6 каналов
Расположение каналов : Front: L C R, Side: L R, LFE
Частота : 48,0 КГц
Частота кадров : 31,250 кадров/сек (1536 SPF)
Битовая глубина : 16 бит
Метод сжатия : С потерями
Размер потока : 63,6 Мбайт (6%)
ServiceKind : Complete Main

Аудио #2
Идентификатор : 189 (0xBD)-129 (0x81)
Формат : AC-3
Формат/Информация : Audio Coding 3
Параметр Endianness формата : Big
Режим смешивания : DVD-Video
Продолжительность : 23 м. 9 с.
Вид битрейта : Постоянный
Битрейт : 448 Кбит/сек
Каналы : 6 каналов
Расположение каналов : Front: L C R, Side: L R, LFE
Частота : 48,0 КГц
Частота кадров : 31,250 кадров/сек (1536 SPF)
Битовая глубина : 16 бит
Метод сжатия : С потерями
Размер потока : 74,2 Мбайт (7%)
ServiceKind : Complete Main

Меню

Доп. информация:
Исходник: Дюнкерк / Dunkirk (2017) DVD9 | IMAX | D, A | Custom
Удалены: авторская звуковая дорожка (в меню кнопка затёрта).
Команды диска переписаны заново, оставлен один VTS.
Видео сжато на 26,5%
Меню: статичное, недействующие кнопки затерты и закрыты.
Обработка и сжатие: DVD ReMake Pro + DVD Rebuilder + CCE SP2 [7 проходов] + Работа с меню (Adobe PhotoShop и MuxMan).
Скриншоты меню:

Скриншоты:


Скачать Dunkirk_2017_DVD5_PAL.torrent

просмотры: 5

Post Comment