Зарубежные фильмы Криминал

Штат одинокой звезды / Lone Star State of Mind (2002) WEBRip | P

Информация о фильме
Название: Штат одинокой звезды
Оригинальное название: Lone Star State of Mind
Год выхода: 2002
Жанр: комедия, криминал
Режиссер: Дэвид Семел / David Semel
В ролях: Джошуа Джексон, Джейми Кинг, ДиДжей Куаллс, Мэттью Дэвис, Райан Херст, Джон Мелленкамп, Сэм МакМюррей, Томас Хейден Чёрч, Джулиан Дульсе Вида, Элизабет Барондес

О фильме:
Когда Господь создавал Техас, то он явно был не в ударе. По крайней мере, так считают влюбленные друг в друга Эрл и Бэби. Выросшие в самом обычном городишке этого штата они только и мечтают, как бы побыстрее слинять отсюда. И конечно в Калифорнию, в Лос-Анджелес, где можно попытать счастья стать богатыми и знаменитыми! Увы все эти грандиозные планы героев упираются в тупик имя которому — Джуниор, кузен Бэби.

Этот чудак умеет влипать в неприятности как никто другой. И как никто другой — втягивать в свои проблемы других. Не успевают наши голубки и глазом моргнуть, как оказываются по уши увязшими в аферах Джуниора. И если в течение 48 часов им не удастся выпутаться из них и выпутать кузена, то Эрл и Бэби могут забыть о своих планах насчет Лос-Анджелеса…

Страна: США
Продолжительность: 01:28:01
Перевод: Профессиональный многоголосый

Файл
Формат: AVI
Качество: WEBRip
Видео: XviD MPEG-4 codec, 672×288, 1046 kbps, 23,9760 fps, 0.225 bpf
Звук: MPEG-1 Layer3 (MP3), 128 kbps, 2.0 channels, 48000 Hz
Субтитры: нет

MI
Format : AVI
Format/Info : Audio Video Interleave
File size : 745 MiB
Duration : 1 h 28 min
Overall bit rate : 1 183 kb/s
Writing application : VirtualDubMod 1.5.10.3 | www.virtualdub-fr.org || (build 2550/release)
Writing library : VirtualDubMod build 2550/release

Video
ID : 0
Format : MPEG-4 Visual
Format profile : Advanced [email protected]
Format settings : BVOP1 / Custom Matrix
Format settings, BVOP : 1
Format settings, QPel : No
Format settings, GMC : No warppoints
Format settings, Matrix : Custom
Codec ID : XVID
Codec ID/Hint : XviD
Duration : 1 h 28 min
Bit rate : 1 046 kb/s
Width : 672 pixels
Height : 288 pixels
Display aspect ratio : 2.35:1
Frame rate : 23.976 (24000/1001) FPS
Original frame rate : 23.976 (23976/1000) FPS
Color space : YUV
Chroma subsampling : 4:2:0
Bit depth : 8 bits
Scan type : Progressive
Compression mode : Lossy
Bits/(Pixel*Frame) : 0.225
Stream size : 658 MiB (88%)
Writing library : XviD 73

Audio
ID : 1
Format : MPEG Audio
Format version : Version 1
Format profile : Layer 3
Codec ID : 55
Codec ID/Hint : MP3
Duration : 1 h 28 min
Bit rate mode : Constant
Bit rate : 128 kb/s
Channel(s) : 2 channels
Sampling rate : 48.0 kHz
Compression mode : Lossy
Stream size : 80.6 MiB (11%)
Alignment : Aligned on interleaves
Interleave, duration : 42 ms (1.00 video frame)
Interleave, preload duration : 504 ms
Writing library : LAME3.98.2

Скриншоты


Скачать Lone.Star.State.of.Mind.2002.HDRip.avi.torrent

просмотры: 2

Post Comment