Вестерн Зарубежные фильмы

Долина костей / Valley of Bones (2017) WEBRip | L2

Информация о фильме
Название: Долина костей
Оригинальное название: Valley of Bones

Год выхода: 2017
Жанр: Триллер, криминал, вестерн
Режиссер: Дэн Глейсер
В ролях: Отем Ризер, Риз Койро, Стив Молони, Mason Mahay, Александра Биллингс, Билл Смитрович, Марк Марголис, Мьюз Уотсон, Билл Даблоу и другие
О фильме:
Анна- мать одиночка, занимающаяся раскопками. Кости и окаменелости, это все, чем она живет. Однажды, брат её бывшего мужа сообщает, что один его знакомый обнаружил зуб динозавра. Они решают отправиться на раскопки, однако они не знали, что этот знакомый задолжал картелю круглую сумму денег.

Страна: США, Bad Medicine Films, Unmarked Van Films, New Heits Entertainment
Продолжительность: 01:30:52
Перевод: Любительский (двухголосый закадровый) | RecentFilms

Файл
Кодек: XviD
Качество: WEBRip
Видео: 720×304, 23,976 fps, ~1771 Kbps, 0.34 bit/pixel
Звук:
Аудио rus: AC3, 48 kHz, 2 ch, 192 Kbps
Субтитры: отсутствуют
Реклама: присутствует

Семпл

MediaInfo:

General
Complete name : F:FilmsValley.of.Bones.2017.WEBRip.RecentFilmsValley.of.Bones.2017.WEBRip.RecentFilms.avi
Format : AVI
Format/Info : Audio Video Interleave
File size : 1.25 GiB
Duration : 1h 30mn
Overall bit rate : 1 973 Kbps
Writing application : VirtualDubMod 1.5.10.3 (build 2550/release)
Writing library : VirtualDubMod build 2550/release

Video
ID : 0
Format : MPEG-4 Visual
Format profile : Advanced [email protected]
Format settings, BVOP : 1
Format settings, QPel : No
Format settings, GMC : No warppoints
Format settings, Matrix : Default (H.263)
Codec ID : XVID
Codec ID/Hint : XviD
Duration : 1h 30mn
Bit rate : 1 771 Kbps
Width : 720 pixels
Height : 304 pixels
Display aspect ratio : 2.35:1
Frame rate : 23.976 (23976/1000) fps
Color space : YUV
Chroma subsampling : 4:2:0
Bit depth : 8 bits
Scan type : Progressive
Compression mode : Lossy
Bits/(Pixel*Frame) : 0.338
Stream size : 1.12 GiB (90%)
Writing library : XviD 73

Audio
ID : 1
Format : AC-3
Format/Info : Audio Coding 3
Mode extension : CM (complete main)
Format settings, Endianness : Big
Codec ID : 2000
Duration : 1h 30mn
Bit rate mode : Constant
Bit rate : 192 Kbps
Channel(s) : 2 channels
Channel positions : Front: L R
Sampling rate : 48.0 KHz
Frame rate : 31.250 fps (1536 spf)
Compression mode : Lossy
Stream size : 125 MiB (10%)
Alignment : Split accross interleaves
Interleave, duration : 42 ms (1.00 video frame)
Interleave, preload duration : 500 ms

Скриншоты

Релиз от: RecentFilms


Скачать Valley.of.Bones.2017.WEBRip.RecentFilms.avi.torrent

просмотры: 2

Post Comment