Драма Зарубежные фильмы

Лиля навсегда / Lilja 4-ever (2002) DVDRip-AVC от ExKinoRay

Информация о фильме
Название: Лиля навсегда
Оригинальное название: Lilja 4-ever
Год выхода: 2002
Жанр: Драма
Режиссер: Лукас Модиссон
В ролях: Оксана Акиньшина, Артем Богучарский, Любовь Агапова, Лиля Шинкарева, Элина Бенинсон, Павел Пономарев, Томас Нойманн, Анастасия Бедрединова, Николай Бентслер

О фильме :
16-летняя Лиля живет в маленьком бедном городке где-то в бывшем Советском Союзе. Ее мать уехала в Америку с новым любовником, и Лиля ждет, когда ей пришлют приглашение. Не дождавшись от матери ни писем, ни денег, Лиля понимает, что ее бросили. У нее остается единственный друг — 11-летний Володя, с которым они мечтают о лучшей жизни. И однажды у Лили появляется надежда. Она влюбляется во взрослого симпатичного парня по имени Андрей, и он уговаривает Лилю поехать вместе с ним в Швецию…

Выпущено: Швеция, Дания, Memfis Film
Продолжительность: 01:44:42
Перевод: Не требуется (Русский)

Файл
Формат: MKV
Качество: DVDRip-AVC
Видео: MPEG-4 AVC, 720×392, ~ 918 Кбит/с
Аудио: AAC-LC, 2 ch, ~ 76 Кбит/с

MI
Общее
Уникальный идентификатор : 176376195665207124806281607434061256840 (0x84B0D1D5F346B1A9AEF8FB6B92AC9888)
Полное имя : D:MOVIESLilya.Navsegda.2002.ExKinoRay.mkv
Формат : Matroska
Версия формата : Version 4 / Version 2
Размер файла : 745 Мбайт
Продолжительность : 1 ч. 44 м.
Общий поток : 995 Кбит/сек
Дата кодирования : UTC 2018-01-30 06:32:18
Программа кодирования : mkvmerge v15.0.0 ('Duel with the Devil') 64-bit
Библиотека кодирования : libebml v1.3.5 + libmatroska v1.4.5

Видео
Идентификатор : 1
Формат : AVC
Формат/Информация : Advanced Video Codec
Профиль формата : [email protected]
Параметр CABAC формата : Да
Параметр RefFrames формата : 10 кадров
Идентификатор кодека : V_MPEG4/ISO/AVC
Продолжительность : 1 ч. 44 м.
Битрейт : 918 Кбит/сек
Ширина : 720 пикселей
Высота : 392 пикселя
Соотношение сторон : 1,85:1
Режим частоты кадров : Постоянный
Частота кадров : 25,000 кадров/сек
Цветовое пространство : YUV
Субдискретизация насыщенности : 4:2:0
Битовая глубина : 8 бит
Тип развёртки : Прогрессивная
Бит/(Пиксели*Кадры) : 0.130
Размер потока : 687 Мбайт (92%)
Библиотека кодирования : x264 core 152 r2851 ba24899
Настройки программы : cabac=1 / ref=10 / deblock=1:-3:-3 / analyse=0x3:0x133 / me=umh / subme=11 / psy=1 / psy_rd=1.00:0.10 / mixed_ref=1 / me_range=32 / chroma_me=1 / trellis=2 / 8x8dct=1 / cqm=0 / deadzone=21,11 / fast_pskip=0 / chroma_qp_offset=-3 / threads=6 / lookahead_threads=1 / sliced_threads=0 / nr=0 / decimate=0 / interlaced=0 / bluray_compat=0 / constrained_intra=0 / bframes=10 / b_pyramid=2 / b_adapt=2 / b_bias=0 / direct=3 / weightb=1 / open_gop=0 / weightp=2 / keyint=250 / keyint_min=24 / scenecut=40 / intra_refresh=0 / rc_lookahead=40 / rc=2pass / mbtree=0 / bitrate=918 / ratetol=1.0 / qcomp=0.60 / qpmin=0 / qpmax=69 / qpstep=4 / cplxblur=20.0 / qblur=0.5 / vbv_maxrate=50000 / vbv_bufsize=62500 / nal_hrd=none / filler=0 / ip_ratio=1.40 / pb_ratio=1.30 / aq=1:1.00
Default : Да
Forced : Нет

Аудио
Идентификатор : 2
Формат : AAC
Формат/Информация : Advanced Audio Codec
Профиль формата : LC
Идентификатор кодека : A_AAC
Продолжительность : 1 ч. 44 м.
Битрейт : 76,0 Кбит/сек
Каналы : 2 канала
Расположение каналов : Front: L R
Частота : 48,0 КГц
Частота кадров : 46,875 кадров/сек (1024 SPF)
Метод сжатия : С потерями
Задержка видео : 4 с. 909 мс.
Размер потока : 56,9 Мбайт (8%)
Default : Да
Forced : Нет

Скриншоты


Релиз от:


Скачать Lilya.Navsegda.2002.ExKinoRay.mkv.torrent

просмотры: 8

Post Comment