Детский Зарубежные фильмы

Черный скакун / The Black Stallion (1979) BDRip-AVC от R.G.Resident | P2


Информация о фильме
Название: Черный скакун
Оригинальное название: The Black Stallion
Год выпуска: 1979
Страна: США
Жанр: приключения, семейный, спорт


Перевод: Профессиональный [двухголосый]
Субтитры: русские (full), английские (full)
Продолжительность: 01:57:35


Режиссер: Кэррол Бэллард
В ролях: Келли Рено, Микки Руни, Тери Гарр, Кларенс Мьюз, Хойт Экстон, Майкл Хиггинс, Эд МакНамара (Jake), Догми Ларби (Arab), Джон Бертон (Jockey #1), Джон Баканан (Jockey #2), Кристен Вигард, Фаусто Тоцци (Rescue Captain)


Описание:
Отправившись в морское путешествие со своим отцом, Алек и не подозревал, что судьба приготовила ему совсем не детское испытание.


Рейтинг:

MPAA: G — Нет возрастных ограничений


Качество: BDRip-AVC
Формат: MKV
Видео: AVC, 1024×552 (1.85:1), 4987 kbps, 23,976 fps, 0,368 bpp
Аудио №1: русский / AC3 / 2.0 / 48 kHz / 192 kbps / Профессиональный (двухголосый закадровый) ОРТ
Аудио №2: русский / AC3 / 2.0 / 48 kHz / 192 kbps / Профессиональный (двухголосый закадровый) НТВ+
Аудио №3: английский / AC3 / 2.0 / 48 kHz / 192 kbps / Оригинал
Навигация по главам: есть


Релиз от:


ОтчетМедиаИнфо

x264 [info]: frame I:970 Avg QP:17.85 size: 89920
x264 [info]: frame P:37258 Avg QP:20.29 size: 42265
x264 [info]: frame B:130941 Avg QP:22.10 size: 20903

General
Unique ID : 237940872879423369149241615637390493608 (0xB301BEC5E65B832BAFBC13224FAB07A8)
Complete name : D:downloadThe Black Stallion.1979.BDRip-AVC by schultz R.G.Resident.mkv
Format : Matroska
Format version : Version 4 / Version 2
File size : 4.57 GiB
Duration : 1 h 57 min
Overall bit rate : 5 566 kb/s
Encoded date : UTC 2018-02-01 15:18:15
Writing application : mkvmerge v8.9.0 ('Father Daughter') 64bit
Writing library : libebml v1.3.3 + libmatroska v1.4.4

Video
ID : 1
Format : AVC
Format/Info : Advanced Video Codec
Format profile : [email protected]
Format settings, CABAC : Yes
Format settings, ReFrames : 10 frames
Codec ID : V_MPEG4/ISO/AVC
Duration : 1 h 57 min
Bit rate : 4 987 kb/s
Width : 1 024 pixels
Height : 552 pixels
Display aspect ratio : 1.85:1
Frame rate mode : Constant
Frame rate : 23.976 (23976/1000) FPS
Color space : YUV
Chroma subsampling : 4:2:0
Bit depth : 8 bits
Scan type : Progressive
Bits/(Pixel*Frame) : 0.368
Stream size : 4.10 GiB (90%)
Writing library : x264 core 146 r2538 121396c
Encoding settings : cabac=1 / ref=10 / deblock=1:-3:-3 / analyse=0x3:0 / me=umh / subme=11 / psy=1 / psy_rd=1.00:0.00 / mixed_ref=1 / me_range=32 / chroma_me=1 / trellis=2 / 8x8dct=1 / cqm=0 / deadzone=21,11 / fast_pskip=0 / chroma_qp_offset=-2 / threads=12 / lookahead_threads=3 / sliced_threads=0 / nr=0 / decimate=0 / interlaced=0 / bluray_compat=0 / constrained_intra=0 / bframes=11 / b_pyramid=2 / b_adapt=2 / b_bias=0 / direct=3 / weightb=1 / open_gop=0 / weightp=2 / keyint=240 / keyint_min=23 / scenecut=40 / intra_refresh=0 / rc_lookahead=40 / rc=2pass / mbtree=0 / bitrate=4987 / ratetol=1.0 / qcomp=0.60 / qpmin=0 / qpmax=69 / qpstep=4 / cplxblur=20.0 / qblur=0.5 / vbv_maxrate=50000 / vbv_bufsize=62500 / nal_hrd=none / filler=0 / ip_ratio=1.40 / pb_ratio=1.30 / aq=1:1.00
Language : English
Default : Yes
Forced : No

Audio #1
ID : 2
Format : AC-3
Format/Info : Audio Coding 3
Mode extension : CM (complete main)
Format settings, Endianness : Big
Codec ID : A_AC3
Duration : 1 h 57 min
Bit rate mode : Constant
Bit rate : 192 kb/s
Channel(s) : 2 channels
Channel positions : Front: L R
Sampling rate : 48.0 kHz
Frame rate : 31.250 FPS (1536 spf)
Compression mode : Lossy
Stream size : 161 MiB (3%)
Title : DVO [ОРТ ]
Language : Russian
Default : Yes
Forced : No

Audio #2
ID : 3
Format : AC-3
Format/Info : Audio Coding 3
Mode extension : CM (complete main)
Format settings, Endianness : Big
Codec ID : A_AC3
Duration : 1 h 57 min
Bit rate mode : Constant
Bit rate : 192 kb/s
Channel(s) : 2 channels
Channel positions : Front: L R
Sampling rate : 48.0 kHz
Frame rate : 31.250 FPS (1536 spf)
Compression mode : Lossy
Stream size : 161 MiB (3%)
Title : DVO [НТВ+]
Language : Russian
Default : No
Forced : No

Audio #3
ID : 4
Format : AC-3
Format/Info : Audio Coding 3
Mode extension : CM (complete main)
Format settings, Endianness : Big
Codec ID : A_AC3
Duration : 1 h 57 min
Bit rate mode : Constant
Bit rate : 192 kb/s
Channel(s) : 2 channels
Channel positions : Front: L R
Sampling rate : 48.0 kHz
Frame rate : 31.250 FPS (1536 spf)
Compression mode : Lossy
Stream size : 161 MiB (3%)
Title : Оригинал
Language : English
Default : No
Forced : No

Text #1
ID : 5
Format : UTF-8
Codec ID : S_TEXT/UTF8
Codec ID/Info : UTF-8 Plain Text
Duration : 1 h 49 min
Bit rate : 25 b/s
Count of elements : 425
Stream size : 20.2 KiB (0%)
Title : full
Language : Russian
Default : No
Forced : No

Text #2
ID : 6
Format : UTF-8
Codec ID : S_TEXT/UTF8
Codec ID/Info : UTF-8 Plain Text
Duration : 1 h 51 min
Bit rate : 20 b/s
Count of elements : 473
Stream size : 16.8 KiB (0%)
Title : full
Language : English
Default : No
Forced : No

Menu
00:00:00.000 : en:00:00:00.000
00:09:09.424 : en:00:09:09.424
00:13:24.220 : en:00:13:24.220
00:18:32.945 : en:00:18:32.945
00:26:56.573 : en:00:26:56.573
00:46:03.135 : en:00:46:03.135
00:50:11.217 : en:00:50:11.217
00:54:17.963 : en:00:54:17.963
01:05:53.616 : en:01:05:53.616
01:14:17.578 : en:01:14:17.578
01:20:16.854 : en:01:20:16.854
01:33:01.576 : en:01:33:01.576
01:41:17.697 : en:01:41:17.697
01:45:53.472 : en:01:45:53.472
01:54:58.308 : en:01:54:58.308

Скриншоты


Скачать The_Black_Stallion.1979.BDRip-AVC_by_schultz_R..torrent

просмотры: 0

Post Comment