Детский Зарубежные фильмы

Стеклянный замок / The Glass Castle (2017) BDRip 720p | iTunes

Информация о фильме
Название: Стеклянный замок
Оригинальное название: The Glass Castle
Год выпуска: 2017
Жанр: драма, биография
Режиссер: Дестин Креттон
В ролях: Бри Ларсон, Вуди Харрельсон, Наоми Уоттс, Элла Андерсон, Чандлер Хэд, Макс Гринфилд, Джош Барклай Карас, Чарли Шотуэлл, Иэн Армитедж, Сара Снук

О фильме:
Девочка растет в неблагополучной семье нонконформистов-кочевников. Ее мать эксцентричная артистка, а отец — алкоголик. Родители пытаются вселить надежду в ее детское воображение, чтобы хоть как-то отвлечь внимание от бедности.

Страна: США
Продолжительность: 02:06:56
Перевод: Профессиональный (одноголосый закадровый) iTunes

Файл
Формат: MKV
Качество BDRip 720p [PlayHD]
Видео: 1280×534 at 23.976 fps, [email protected], ~6223 kbps avg
Аудио#1: Russian: 48 kHz, AC3, 3/2 (L,C,R,l,r) + LFE ch, ~384.00 kbps avg
Аудио#2: English: 48 kHz, AC3, 3/2 (L,C,R,l,r) + LFE ch, ~640.00 kbps avg
Cубтитры: нет

Сэмпл

MediaInfo
General
Unique ID : 241624054588858479660306516736839039448 (0xB5C719A6D1762799B41E59EC3630B9D8)
Complete name : The.Glass.Castle.2017.720p.BluRay.Rus.Eng.mkv
Format : Matroska
Format version : Version 2
File size : 6.43 GiB
Duration : 2 h 6 min
Overall bit rate : 7 249 kb/s
Encoded date : UTC 2018-01-18 23:26:33
Writing application : mkvmerge v8.3.0 ('Over the Horizon') 64bit
Writing library : libebml v1.3.1 + libmatroska v1.4.2

Video
ID : 1
Format : AVC
Format/Info : Advanced Video Codec
Format profile : [email protected]
Format settings : CABAC / 12 Ref Frames
Format settings, CABAC : Yes
Format settings, ReFrames : 12 frames
Codec ID : V_MPEG4/ISO/AVC
Duration : 2 h 6 min
Bit rate : 6 223 kb/s
Width : 1 280 pixels
Height : 534 pixels
Display aspect ratio : 2.40:1
Frame rate mode : Constant
Frame rate : 23.976 (24000/1001) FPS
Color space : YUV
Chroma subsampling : 4:2:0
Bit depth : 8 bits
Scan type : Progressive
Bits/(Pixel*Frame) : 0.380
Stream size : 5.52 GiB (86%)
Writing library : x264 core 146 r2538 121396c
Encoding settings : cabac=1 / ref=12 / deblock=1:-3:-3 / analyse=0x3:0x133 / me=umh / subme=10 / psy=1 / psy_rd=1.00:0.00 / mixed_ref=1 / me_range=32 / chroma_me=1 / trellis=2 / 8x8dct=1 / cqm=0 / deadzone=21,11 / fast_pskip=0 / chroma_qp_offset=-2 / threads=6 / lookahead_threads=1 / sliced_threads=0 / nr=0 / decimate=0 / interlaced=0 / bluray_compat=0 / constrained_intra=0 / bframes=9 / b_pyramid=2 / b_adapt=2 / b_bias=0 / direct=3 / weightb=1 / open_gop=0 / weightp=2 / keyint=250 / keyint_min=23 / scenecut=40 / intra_refresh=0 / rc=crf / mbtree=0 / crf=14.2 / qcomp=0.60 / qpmin=0 / qpmax=69 / qpstep=4 / ip_ratio=1.40 / pb_ratio=1.30 / aq=3:0.80
Language : English
Default : Yes
Forced : No

Audio #1
ID : 2
Format : AC-3
Format/Info : Audio Coding 3
Codec ID : A_AC3
Duration : 2 h 6 min
Bit rate mode : Constant
Bit rate : 384 kb/s
Channel(s) : 6 channels
Channel positions : Front: L C R, Side: L R, LFE
Sampling rate : 48.0 kHz
Frame rate : 31.250 FPS (1536 SPF)
Bit depth : 16 bits
Compression mode : Lossy
Stream size : 349 MiB (5%)
Language : Russian
Service kind : Complete Main
Default : Yes
Forced : No

Audio #2
ID : 3
Format : AC-3
Format/Info : Audio Coding 3
Codec ID : A_AC3
Duration : 2 h 6 min
Bit rate mode : Constant
Bit rate : 640 kb/s
Channel(s) : 6 channels
Channel positions : Front: L C R, Side: L R, LFE
Sampling rate : 48.0 kHz
Frame rate : 31.250 FPS (1536 SPF)
Bit depth : 16 bits
Compression mode : Lossy
Stream size : 581 MiB (9%)
Language : English
Service kind : Complete Main
Default : No
Forced : No

Menu
00:00:00.000 : en:00:00:00.000
00:08:15.453 : en:00:08:15.453
00:15:33.182 : en:00:15:33.182
00:21:33.292 : en:00:21:33.292
00:29:25.931 : en:00:29:25.931
00:37:11.187 : en:00:37:11.187
00:43:54.840 : en:00:43:54.840
00:51:53.485 : en:00:51:53.485
01:00:29.334 : en:01:00:29.334
01:07:59.659 : en:01:07:59.659
01:14:05.816 : en:01:14:05.816
01:24:52.504 : en:01:24:52.504
01:29:27.696 : en:01:29:27.696
01:37:47.236 : en:01:37:47.236
01:45:53.263 : en:01:45:53.263
01:55:49.484 : en:01:55:49.484
Скриншоты


Скачать The.Glass.Castle.2017.720p.BluRay.Rus.Eng.mkv.torrent

просмотры: 1

Post Comment