Детский Зарубежные фильмы

Прощай, Кристофер Робин / Goodbye Christopher Robin (2017) BDRip-AVC от ExKinoRay | iTunes

Информация о фильме
Название: Прощай, Кристофер Робин
Оригинальное название: Goodbye Christopher Robin
Год выпуска: 2017
Жанр: Семейный, биография, история
Режиссер: Саймон Кёртис
В ролях: Донал Глисон, Марго Робби, Келли Макдоналд, Вики Пеппердин, Уилл Тилстон, Алекс Лоутер, Стивен Кэмпбелл,Ричард МакКейб, Джеральдин Сомервилль, Мосси Смит

О фильме :
Сюжет фильма предоставляет необычный взгляд на семейную жизнь классика детской литературы Александра Алана Милна, который воевал на фронтах Первой мировой войны, а затем подарил Англии добрую сказку о Винни-Пухе. Будущий легендарный автор черпал вдохновение, наблюдая за своим сыном Кристофером Робином и его игрушками. Впоследствии Милн, как и его сын, получил широкую известность, однако взлет творческой славы писателя тяжело сказался на взаимоотношениях отца и сына.

Страна: Великобритания
Студия: DJ Films, Fox Searchlight Pictures
Продолжительность: 01:47:00
Перевод: Профессиональный (многоголосый, закадровый) | iTunes

Файл
Формат: MKV
Качество: BDRip-AVC (BDRemux 1080p)
Видео: MPEG-4 AVC, 752×404, ~ 897 Кбит/с
Аудио: AAC-LC, 2 ch, ~ 76 Кбит/с
Субтитры: Русские, английские

MI
Общее
Уникальный идентификатор : 223092513756196320375844042426515828937 (0xA7D60E25988D39A99EB81F5C8F51B0C9)
Полное имя : D:MOVIESGoodbye.Christopher.Robin.2017.ExKinoRay.mkv
Формат : Matroska
Версия формата : Version 4 / Version 2
Размер файла : 743 Мбайт
Продолжительность : 1 ч. 47 м.
Общий поток : 970 Кбит/сек
Дата кодирования : UTC 2018-01-24 13:04:21
Программа кодирования : mkvmerge v15.0.0 ('Duel with the Devil') 64-bit
Библиотека кодирования : libebml v1.3.5 + libmatroska v1.4.5

Видео
Идентификатор : 1
Формат : AVC
Формат/Информация : Advanced Video Codec
Профиль формата : [email protected]
Параметр CABAC формата : Да
Параметр RefFrames формата : 10 кадров
Идентификатор кодека : V_MPEG4/ISO/AVC
Продолжительность : 1 ч. 47 м.
Битрейт : 897 Кбит/сек
Ширина : 752 пикселя
Высота : 404 пикселя
Соотношение сторон : 1,85:1
Режим частоты кадров : Постоянный
Частота кадров : 23,976 (24000/1001) кадра/сек
Цветовое пространство : YUV
Субдискретизация насыщенности : 4:2:0
Битовая глубина : 8 бит
Тип развёртки : Прогрессивная
Бит/(Пиксели*Кадры) : 0.123
Размер потока : 682 Мбайт (92%)
Библиотека кодирования : x264 core 152 r2851 ba24899
Настройки программы : cabac=1 / ref=10 / deblock=1:-2:-2 / analyse=0x3:0x133 / me=umh / subme=11 / psy=1 / psy_rd=1.00:0.05 / mixed_ref=1 / me_range=32 / chroma_me=1 / trellis=2 / 8x8dct=1 / cqm=0 / deadzone=21,11 / fast_pskip=0 / chroma_qp_offset=-3 / threads=6 / lookahead_threads=1 / sliced_threads=0 / nr=0 / decimate=0 / interlaced=0 / bluray_compat=0 / constrained_intra=0 / bframes=10 / b_pyramid=2 / b_adapt=2 / b_bias=0 / direct=3 / weightb=1 / open_gop=0 / weightp=2 / keyint=240 / keyint_min=23 / scenecut=40 / intra_refresh=0 / rc_lookahead=40 / rc=2pass / mbtree=0 / bitrate=897 / ratetol=1.0 / qcomp=0.60 / qpmin=0 / qpmax=69 / qpstep=4 / cplxblur=20.0 / qblur=0.5 / vbv_maxrate=50000 / vbv_bufsize=62500 / nal_hrd=none / filler=0 / ip_ratio=1.40 / pb_ratio=1.30 / aq=1:1.00
Default : Да
Forced : Нет

Аудио
Идентификатор : 2
Формат : AAC
Формат/Информация : Advanced Audio Codec
Профиль формата : LC
Идентификатор кодека : A_AAC
Продолжительность : 1 ч. 46 м.
Битрейт : 76,0 Кбит/сек
Каналы : 2 канала
Расположение каналов : Front: L R
Частота : 48,0 КГц
Частота кадров : 46,875 кадров/сек (1024 SPF)
Метод сжатия : С потерями
Задержка видео : 9 мс.
Размер потока : 58,2 Мбайт (8%)
Default : Да
Forced : Нет

Текст #1
Идентификатор : 3
Формат : UTF-8
Идентификатор кодека : S_TEXT/UTF8
Идентификатор кодека/Информация : UTF-8 Plain Text
Продолжительность : 1 ч. 39 м.
Битрейт : 101 бит/сек
ElementCount : 1414
Размер потока : 74,0 Кбайт (0%)
Заголовок : Full
Язык : Russian
Default : Нет
Forced : Нет

Текст #2
Идентификатор : 4
Формат : UTF-8
Идентификатор кодека : S_TEXT/UTF8
Идентификатор кодека/Информация : UTF-8 Plain Text
Продолжительность : 1 ч. 40 м.
Битрейт : 63 бит/сек
ElementCount : 1669
Размер потока : 46,7 Кбайт (0%)
Заголовок : Full
Язык : English
Default : Нет
Forced : Нет

Меню
00:00:00.000 : en:Chapter 1
00:04:03.952 : en:Chapter 2
00:07:01.171 : en:Chapter 3
00:10:32.632 : en:Chapter 4
00:13:40.528 : en:Chapter 5
00:16:48.591 : en:Chapter 6
00:20:43.409 : en:Chapter 7
00:25:44.793 : en:Chapter 8
00:30:36.752 : en:Chapter 9
00:35:25.582 : en:Chapter 10
00:40:50.740 : en:Chapter 11
00:48:22.108 : en:Chapter 12
00:52:32.733 : en:Chapter 13
00:57:53.595 : en:Chapter 14
01:03:35.812 : en:Chapter 15
01:07:38.513 : en:Chapter 16
01:12:43.859 : en:Chapter 17
01:18:55.731 : en:Chapter 18
01:21:45.609 : en:Chapter 19
01:25:16.653 : en:Chapter 20
01:29:10.428 : en:Chapter 21
01:32:27.917 : en:Chapter 22
01:35:55.917 : en:Chapter 23
01:41:03.266 : en:Chapter 24

Скриншоты


Релиз от:


Скачать Goodbye.Christopher.Robin.2017.ExKinoRay.mkv.torrent

просмотры: 1

Post Comment