Детский Зарубежные фильмы

Новые приключения детей из Бюллербю / Mer Om Oss Barn I Bullerbyn (1987) DVDRip | A

Информация о фильме
Название: Новые приключения детей из Бюллербю
Оригинальное название: Mer Om Oss Barn I Bullerbyn
Год выхода: 1987
Жанр: Детский, приключения
Режиссёр: Лассе Хальстрём / Lasse Hallström
В ролях: Линда Бергстрём, Криспин Диксон Вендениус, Хенрик Ларсон, Элен Демерус, Анна Салин, Харальд Лёнбру, Туве Эдфельт, Элизабет Нордквист, Ингвар Свенсон, Катти Эдфельт, Билл Йонсон, Анна Софи Кнапе, Сёрен Петерсон, Зигфрид Эриксон, Луиза Рэдер, Петер Дывик, Улоф Шёгрен, Эва Карлсон, Бритта Стернеланд

О фильме: В маленькой шведской деревеньке время течёт размеренно, и всё идёт своим чередом: приходит осень, её сменяет зима и вновь приходит весна; будние дни сменяются праздниками; учёба в школе и помощь родителям по хозяйству сменяются весёлыми детскими играми…

Доп.информация: Второй фильм дилогии по книге Астрид Линдгрен "Мы все из Бюллербю / Дети из Бюллербю", является продолжением фильма

Страна: Швеция
Студия: Svensk Filmindustri (SF) AB
Продолжительность: 01:24:23
Перевод: Авторский (одноголосый, закадровый) — Вячеслав Прошин

Файл
Формат: avi
Качество: DVDRip (DVD9)
Видео: XviD, 656х368, 25fps, 1095kbps
Аудио: MPEG Layer 3, 2ch, 48000Hz, 128kbps

MediaInfo

Общее
Полное имя : My.Vse.Iz.Bullerbu.2.1987.A.DVDRip.700.CurHaJI.avi
Формат : AVI
Формат/Информация : Audio Video Interleave
Размер файла : 744 Мбайт
Продолжительность : 1 ч. 24 м.
Общий поток : 1232 Кбит/сек
Название фильма : My.Vse.Iz.Bullerbu.2.1987.P1.DVDRip.700.CurHaJI
Программа кодирования : VirtualDubMod 1.5.10.3 | www.virtualdub-fr.org || (build 2550/release)
Библиотека кодирования : VirtualDub build 35491/release

Видео
Идентификатор : 0
Формат : MPEG-4 Visual
Профиль формата : Advanced [email protected]
Параметр BVOP формата : 1
Параметр QPel формата : Нет
Параметр GMC формата : Без точки перехода
Параметр матрицы формата : Выборочная
Идентификатор кодека : XVID
Идентификатор кодека/Подсказка : XviD
Продолжительность : 1 ч. 24 м.
Битрейт : 1095 Кбит/сек
Ширина : 656 пикселей
Высота : 368 пикселей
Соотношение сторон : 16:9
Частота кадров : 25,000 кадров/сек
Цветовое пространство : YUV
Субдискретизация насыщенности : 4:2:0
Битовая глубина : 8 бит
Тип развёртки : Прогрессивная
Метод сжатия : С потерями
Бит/(Пиксели*Кадры) : 0.181
Размер потока : 661 Мбайт (89%)
Библиотека кодирования : XviD 73

Аудио
Идентификатор : 1
Формат : MPEG Audio
Версия формата : Version 1
Профиль формата : Layer 3
Идентификатор кодека : 55
Идентификатор кодека/Подсказка : MP3
Продолжительность : 1 ч. 24 м.
Вид битрейта : Постоянный
Битрейт : 128 Кбит/сек
Каналы : 2 канала
Частота : 48,0 КГц
Метод сжатия : С потерями
Размер потока : 77,3 Мбайт (10%)
Выравнивание : Соединение по промежуткам
Продолжительность промежутка : 40 мс. (1,00 видеокадр)
Время предзагрузки промежутка : 504 мс.
Библиотека кодирования : LAME3.99r
Настройки программы : -m s -V 4 -q 2 -lowpass 17 -b 128

Скриншоты

Релиз от:


Скачать My.Vse.Iz.Bullerbu.2.1987.A.DVDRip.700.CurHaJI..torrent

просмотры: 0

Post Comment