Детский Зарубежные фильмы

Прощай, Кристофер Робин / Goodbye Christopher Robin (2017) BDRip 720p от k.e.n & MegaPeer | iTunes

Информация о фильме
Название: Прощай, Кристофер Робин
Оригинальное название: Goodbye Christopher Robin
Год выпуска: 2017
Жанр: Семейный, биография, история
Режиссер: Саймон Кёртис
В ролях: Донал Глисон, Марго Робби, Келли Макдоналд, Вики Пеппердин, Уилл Тилстон, Алекс Лоутер, Стивен Кэмпбелл, Мур, Ричард МакКейб, Джеральдин Сомервилль, Мосси Смит

О фильме:
Сюжет фильма предоставляет необычный взгляд на семейную жизнь классика детской литературы Александра Алана Милна, который воевал на фронтах Первой мировой войны, а затем подарил Англии добрую сказку о Винни-Пухе. Будущий легендарный автор черпал вдохновение, наблюдая за своим сыном Кристофером Робином и его игрушками. Впоследствии Милн, как и его сын, получил широкую известность, однако взлет творческой славы писателя тяжело сказался на взаимоотношениях отца и сына.

«Прощай, Кристофер Робин» ‒ британская историко-биографическая драма, снятая режиссером Саймоном Кертисом («7 дней и ночей с Мэрилин»). Образ писателя воплотил Донал Глисон («Звёздные войны: Пробуждение силы», «Бойфренд из будущего», «Выживший»), а роль его жены Дафны Милн исполнила Марго Робби («Отряд самоубийц», «Волк с Уолл-стрит»).

Страна: Великобритания
Студия: DJ Films, Fox Searchlight Pictures
Продолжительность: 01:47:00
Перевод: Профессиональный (многоголосый, закадровый) | iTunes

Файл
Формат: MKV
Качество: BDRip 720p | BDRemux 1080p |
Видео: AVC, 1280×690 (1.85), 23.976 fps, 4 953 Kbps (0.234 bit/pixel)
Звук:
Аудио #1: AC-3, 48.0 KHz, 6 ch, 384 Kbps, CBR (Russian)
Аудио #2: AC-3, 48.0 KHz, 6 ch, 448 Kbps, CBR (English)
Субтитры: English

Скриншоты:

Релиз от: &

x264 log:
x264 [info]: frame I:1497 Avg QP:14.21 size:186087 PSNR Mean Y:48.65 U:53.35 V:52.59 Avg:49.50 Global:48.45
x264 [info]: frame P:32480 Avg QP:17.24 size: 56215 PSNR Mean Y:46.34 U:53.33 V:52.46 Avg:47.35 Global:45.80
x264 [info]: frame B:119965 Avg QP:18.62 size: 15555 PSNR Mean Y:45.83 U:52.89 V:51.83 Avg:46.88 Global:45.24
MediaInfo:
Полное имя : D:Прощай, Кристофер Робин. 2017 (Д.Глисон, М.Робби).mkv
Формат : Matroska
Версия формата : Version 2
Размер файла : 4,32 Гбайт
Продолжительность : 1 ч. 47 м.
Общий поток : 5782 Кбит/сек
Название фильма : Goodbye Christopher Robin (2017) BDRip 720p от k.e.n & MegaPeer
Дата кодирования : UTC 2018-01-18 08:22:32
Программа кодирования : mkvmerge v5.3.0 ('I could have danced') built on Feb 9 2012 10:38:07
Библиотека кодирования : libebml v1.2.3 + libmatroska v1.3.0
Attachments : poster 1.jpg

Видео
Идентификатор : 1
Формат : AVC
Формат/Информация : Advanced Video Codec
Профиль формата : [email protected]
Параметр CABAC формата : Да
Параметр ReFrames формата : 9 кадров
Идентификатор кодека : V_MPEG4/ISO/AVC
Продолжительность : 1 ч. 47 м.
Битрейт : 4953 Кбит/сек
Ширина : 1280 пикселей
Высота : 690 пикселей
Соотношение сторон : 1,85:1
Режим частоты кадров : Постоянный
Частота кадров : 23,976 (24000/1001) кадра/сек
Цветовое пространство : YUV
Субдискретизация насыщенности : 4:2:0
Битовая глубина : 8 бит
Тип развёртки : Прогрессивная
Бит/(Пиксели*Кадры) : 0.234
Размер потока : 3,61 Гбайт (84%)
Библиотека кодирования : x264 core 146 r2538 121396c
Настройки программы : cabac=1 / ref=9 / deblock=1:-3:-3 / analyse=0x3:0x133 / me=umh / subme=11 / psy=1 / psy_rd=1.00:0.10 / mixed_ref=1 / me_range=32 / chroma_me=1 / trellis=2 / 8x8dct=1 / cqm=0 / deadzone=21,11 / fast_pskip=0 / chroma_qp_offset=-3 / threads=12 / lookahead_threads=3 / sliced_threads=0 / nr=0 / decimate=0 / interlaced=0 / bluray_compat=0 / constrained_intra=0 / bframes=9 / b_pyramid=2 / b_adapt=2 / b_bias=0 / direct=3 / weightb=1 / open_gop=0 / weightp=2 / keyint=240 / keyint_min=23 / scenecut=40 / intra_refresh=0 / rc=2pass / mbtree=0 / bitrate=4953 / ratetol=1.0 / qcomp=0.60 / qpmin=0 / qpmax=69 / qpstep=4 / cplxblur=20.0 / qblur=0.5 / ip_ratio=1.40 / pb_ratio=1.30 / aq=1:0.70
Язык : English
Default : Да
Forced : Нет

Аудио #1
Идентификатор : 2
Формат : AC-3
Формат/Информация : Audio Coding 3
Расширение режима : CM (complete main)
Параметр Endianness формата : Big
Идентификатор кодека : A_AC3
Продолжительность : 1 ч. 47 м.
Вид битрейта : Постоянный
Битрейт : 384 Кбит/сек
Каналы : 6 каналов
Расположение каналов : Front: L C R, Side: L R, LFE
Частота : 48,0 КГц
Частота кадров : 31,250 кадров/сек (1536 spf)
Битовая глубина : 16 бит
Метод сжатия : С потерями
Размер потока : 294 Мбайт (7%)
Заголовок : Многоголосый
Язык : Russian
Default : Да
Forced : Нет

Аудио #2
Идентификатор : 3
Формат : AC-3
Формат/Информация : Audio Coding 3
Расширение режима : CM (complete main)
Параметр Endianness формата : Big
Идентификатор кодека : A_AC3
Продолжительность : 1 ч. 47 м.
Вид битрейта : Постоянный
Битрейт : 448 Кбит/сек
Каналы : 6 каналов
Расположение каналов : Front: L C R, Side: L R, LFE
Частота : 48,0 КГц
Частота кадров : 31,250 кадров/сек (1536 spf)
Битовая глубина : 16 бит
Метод сжатия : С потерями
Размер потока : 343 Мбайт (8%)
Язык : English
Default : Нет
Forced : Нет

Текст #1
Идентификатор : 4
Формат : UTF-8
Идентификатор кодека : S_TEXT/UTF8
Идентификатор кодека/Информация : UTF-8 Plain Text
Заголовок : full
Язык : English
Default : Нет
Forced : Нет

Текст #2
Идентификатор : 5
Формат : UTF-8
Идентификатор кодека : S_TEXT/UTF8
Идентификатор кодека/Информация : UTF-8 Plain Text
Заголовок : SDH
Язык : English
Default : Нет
Forced : Нет

Текст #3
Идентификатор : 6
Формат : UTF-8
Идентификатор кодека : S_TEXT/UTF8
Идентификатор кодека/Информация : UTF-8 Plain Text
Заголовок : Colored
Язык : English
Default : Нет
Forced : Нет

Меню
00:00:00.000 : :Chapter 1
00:04:03.952 : :Chapter 2
00:07:01.171 : :Chapter 3
00:10:32.632 : :Chapter 4
00:13:40.528 : :Chapter 5
00:16:48.591 : :Chapter 6
00:20:43.409 : :Chapter 7
00:25:44.793 : :Chapter 8
00:30:36.752 : :Chapter 9
00:35:25.582 : :Chapter 10
00:40:50.740 : :Chapter 11
00:48:22.108 : :Chapter 12
00:52:32.733 : :Chapter 13
00:57:53.595 : :Chapter 14
01:03:35.812 : :Chapter 15
01:07:38.513 : :Chapter 16
01:12:43.859 : :Chapter 17
01:18:55.731 : :Chapter 18
01:21:45.609 : :Chapter 19
01:25:16.653 : :Chapter 20
01:29:10.428 : :Chapter 21
01:32:27.917 : :Chapter 22
01:35:55.917 : :Chapter 23
01:41:03.266 : :Chapter 24


Скачать Prowaj_Kristofer_Robin.2017_D.Glison_M.Robbi.k..torrent

просмотры: 0

Post Comment