Зарубежные фильмы Исторический

Отверженные / Les Miserables (1958) BDRip 1080p | D, P, P1


Информация о фильме
Название: Отверженные
Оригинальное название: Les Miserables
Год выпуска: 1958
Жанр: драма, исторический, экранизация
Выпущено: Франция, Германия (ФРГ), Италия
Продолжительность: 03:08:55
Перевод: Дублированный, профессиональный многоголосый, профессиональный одноголосый
Режиссер: Жан-Поль Ле Шануа
В ролях: Жан Габен, Даниэль Делорм, Бернар Блие, Серж Реджани, Бурвиль, Жани Эспозито, Мартина Аве, Беатрис Альтариба, Эльфрида Флорин, Джимми Урбен, Жан Мюра, Люсьен Бару, Сильвия Монфор, Жюльенна Пароли, Фернан Леду, Эдмон Ардиссон, Жан Озенн, Бернар Мюссон, Мадлен Барбюле


О фильме:
Экранизация одноименного романа Виктора Гюго.
1815 год, Франция. Бывший каторжник Жан Вальжан — «отверженный», испытывающий злобу ко всему человечеству после своего 19-летнего заключения за кражу хлеба — попадает к католическому епископу Мириэлю Диньскому, полностью изменившему его жизнь. Епископ отнёсся к нему как к человеку, заслуживающему уважения. Более того, когда Вальжан украл у него серебряную посуду, простил его и не выдал властям — и даже подарил ему серебряные подсвечники. Их Жан Вальжан с благоговейным трепетом хранил до самой смерти. Первое и единственное существо, пожалевшее его, каторжника, так потрясло Вальжана, что он очень резко изменил свою жизнь.


Файл
Качество: BDRip 1080p
Видео: 1920×816 (2.35:1), 10000 Kbps, 23.976 fps, [email protected], 0.266 bit/pixel
Аудио 1: Russian: 48 kHz, AC3, 2/0 (L,R) ch, 192 kbps |DUB, Союзмультфильм — со вставками MVO|
Аудио 2: Russian: 48 kHz, AC3, 2/0 (L,R) ch, 192 kbps |MVO, Film Prestige|
Аудио 3: Russian: 48 kHz, AC3, 2/0 (L,R) ch, 192 kbps |VO|
Аудио 4: French: 48 kHz, AC3, 1.0 ch, 320 kbps |Оригинал|
Cубтитры: Русские, английские


Скриншоты




MediaInfo
Общее
Уникальный идентификатор : 249286525185540804356101712534570285482 (0xBB8AD69EAD1F674BAB8F74AB5DD439AA)
Полное имя : Отверженные.1958.BDRip.1080p.mkv
Формат : Matroska
Версия формата : Version 4 / Version 2
Размер файла : 14,4 Гбайт
Продолжительность : 3 ч. 9 м.
Общий поток : 10,9 Мбит/сек
Название фильма : Release for Topmost
Дата кодирования : UTC 2017-10-25 14:51:16
Программа кодирования : mkvmerge v6.2.0 ('Promised Land') built on Apr 28 2013 12:22:01
Библиотека кодирования : libebml v1.3.0 + libmatroska v1.4.0
Обложка : Yes
Attachments : cover_land.jpg

Видео
Идентификатор : 1
Формат : AVC
Формат/Информация : Advanced Video Codec
Профиль формата : [email protected]
Параметр CABAC формата : Да
Параметр RefFrames формата : 4 кадра
Идентификатор кодека : V_MPEG4/ISO/AVC
Продолжительность : 3 ч. 9 м.
Битрейт : 10000 Кбит/сек
Ширина : 1920 пикселей
Высота : 816 пикселей
Соотношение сторон : 2,35:1
Режим частоты кадров : Постоянный
Частота кадров : 23,976 (24000/1001) кадра/сек
Цветовое пространство : YUV
Субдискретизация насыщенности : 4:2:0
Битовая глубина : 8 бит
Тип развёртки : Прогрессивная
Бит/(Пиксели*Кадры) : 0.266
Размер потока : 12,9 Гбайт (90%)
Заголовок : Отверженные.1958 (Release for Topmost)
Библиотека кодирования : x264 core 146 r2538 121396c
Настройки программы : cabac=1 / ref=4 / deblock=1:-3:-3 / analyse=0x3:0x113 / me=umh / subme=11 / psy=1 / psy_rd=1.00:0.15 / mixed_ref=1 / me_range=32 / chroma_me=1 / trellis=2 / 8x8dct=1 / cqm=0 / deadzone=21,11 / fast_pskip=0 / chroma_qp_offset=-3 / threads=12 / lookahead_threads=2 / sliced_threads=0 / nr=0 / decimate=0 / interlaced=0 / bluray_compat=0 / constrained_intra=0 / bframes=8 / b_pyramid=2 / b_adapt=2 / b_bias=0 / direct=3 / weightb=1 / open_gop=0 / weightp=2 / keyint=240 / keyint_min=23 / scenecut=40 / intra_refresh=0 / rc_lookahead=40 / rc=2pass / mbtree=1 / bitrate=10000 / ratetol=1.0 / qcomp=0.60 / qpmin=0 / qpmax=69 / qpstep=4 / cplxblur=20.0 / qblur=0.5 / ip_ratio=1.40 / aq=1:0.90
Язык : French
Default : Да
Forced : Нет

Аудио #1
Идентификатор : 2
Формат : AC-3
Формат/Информация : Audio Coding 3
Параметр Endianness формата : Big
Идентификатор кодека : A_AC3
Продолжительность : 3 ч. 9 м.
Вид битрейта : Постоянный
Битрейт : 192 Кбит/сек
Каналы : 2 канала
Расположение каналов : Front: L R
Частота : 48,0 КГц
Частота кадров : 31,250 кадров/сек (1536 SPF)
Битовая глубина : 16 бит
Метод сжатия : С потерями
Размер потока : 260 Мбайт (2%)
Заголовок : AC3, 2 ch, 192 Kbps – DUB (Союзмультфильм — со вставками MVO)
Язык : Russian
Default : Да
Forced : Нет

Аудио #2
Идентификатор : 3
Формат : AC-3
Формат/Информация : Audio Coding 3
Параметр Endianness формата : Big
Идентификатор кодека : A_AC3
Продолжительность : 3 ч. 9 м.
Вид битрейта : Постоянный
Битрейт : 192 Кбит/сек
Каналы : 2 канала
Расположение каналов : Front: L R
Частота : 48,0 КГц
Частота кадров : 31,250 кадров/сек (1536 SPF)
Битовая глубина : 16 бит
Метод сжатия : С потерями
Размер потока : 260 Мбайт (2%)
Заголовок : AC3, 2 ch, 192 Kbps – MVO (Film Prestige)
Язык : Russian
Default : Нет
Forced : Нет

Аудио #3
Идентификатор : 4
Формат : AC-3
Формат/Информация : Audio Coding 3
Параметр Endianness формата : Big
Идентификатор кодека : A_AC3
Продолжительность : 3 ч. 9 м.
Вид битрейта : Постоянный
Битрейт : 192 Кбит/сек
Каналы : 2 канала
Расположение каналов : Front: L R
Частота : 48,0 КГц
Частота кадров : 31,250 кадров/сек (1536 SPF)
Битовая глубина : 16 бит
Метод сжатия : С потерями
Размер потока : 260 Мбайт (2%)
Заголовок : AC3, 2 ch, 192 Kbps – VO
Язык : Russian
Default : Нет
Forced : Нет

Аудио #4
Идентификатор : 5
Формат : AC-3
Формат/Информация : Audio Coding 3
Параметр Endianness формата : Big
Идентификатор кодека : A_AC3
Продолжительность : 3 ч. 9 м.
Вид битрейта : Постоянный
Битрейт : 320 Кбит/сек
Каналы : 1 канал
Расположение каналов : Front: C
Частота : 48,0 КГц
Частота кадров : 31,250 кадров/сек (1536 SPF)
Битовая глубина : 16 бит
Метод сжатия : С потерями
Размер потока : 433 Мбайт (3%)
Заголовок : AC3, 1 ch, 320 Kbps — original
Язык : French
Default : Нет
Forced : Нет

Текст #1
Идентификатор : 6
Формат : UTF-8
Идентификатор кодека : S_TEXT/UTF8
Идентификатор кодека/Информация : UTF-8 Plain Text
Язык : Russian
Default : Нет
Forced : Нет

Текст #2
Идентификатор : 7
Формат : UTF-8
Идентификатор кодека : S_TEXT/UTF8
Идентификатор кодека/Информация : UTF-8 Plain Text
Язык : English
Default : Нет
Forced : Нет

Меню
00:00:00.000 : en:00:00:00.000
00:19:45.267 : en:00:19:45.267
00:40:47.779 : en:00:40:47.779
00:54:24.845 : en:00:54:24.845
01:10:46.993 : en:01:10:46.993
01:28:54.329 : en:01:28:54.329
01:30:55.283 : en:01:30:55.283
01:46:49.069 : en:01:46:49.069
02:19:22.479 : en:02:19:22.479
02:57:00.819 : en:02:57:00.819


Скачать Otverzhennye.1958.BDRip.1080p.mkv.torrent

просмотры: 4

Post Comment