Детектив Зарубежные фильмы

Бегущий по лезвию 2049 / Blade Runner 2049 (2017) BDRip-AVC от New-Team | Лицензия



Группа New-Team ВКонтакте
Подписывайтесь так же на мою группу ВКонтакте stalkerok | AVC рипы
Ссылка в группе New-Team
Присоединяйтесь!


Бегущий по лезвию 2049
Blade Runner 2049


Страна: США, Великобритания, Венгрия, Канада
Жанр: фантастика, триллер, драма, детектив

Год выпуска: 2017
Продолжительность: 02:43:27

Перевод: Профессиональный (полное дублирование) [Blu-ray EUR]
Субтитры: русские (форсированные, полные)
Оригинальная аудиодорожка: нет

Режиссер: Дени Вильнёв / Denis Villeneuve

В ролях: Райан Гослинг, Харрисон Форд, Ана де Армас, Сильвия Хукс, Робин Райт, Маккензи Дэвис, Карла Юри, Ленни Джеймс, Дэйв Батиста, Джаред Лето, Давид Дастмалчян, Баркхад Абди

Описание:
В недалеком будущем мир населен людьми и репликантами, созданными выполнять самую тяжелую работу. Работа офицера полиции Кей — держать репликантов под контролем в условиях нарастающего напряжения… Пока он случайно не становится обладателем секретной информации, которая ставит под угрозу существование всего человечества. Желая найти ключ к разгадке, Кей решает разыскать Рика Декарда, бывшего офицера специального подразделения полиции Лос-Анджелеса, который бесследно исчез много лет назад.

Примечание: Видеоряд частично локализован.

Релиз:

Автор рипа: stalkerok

Сэмпл

Качество видео: BDRip-AVC [Blade Runner 2049 (2017) Blu-ray 2D Disc [EUR] -BLUEBIRD]
Формат видео: MKV
Видео кодек: AVC
Аудио кодек: AC3
Видео: 786 Кбит/сек, 960×398 (2.40:1), 23,976 кадр/сек, AVC
Аудио: русский, 448 Кбит/сек, 48 КГц, 5.1, AC3
Навигация по главам: есть

x264/MediaInfo

—[Information] [05.01.2018 1:45:15] x264 [info]: frame I:1616 Avg QP:14.56 size: 36163
—[Information] [05.01.2018 1:45:15] x264 [info]: frame P:44675 Avg QP:16.39 size: 9646
—[Information] [05.01.2018 1:45:15] x264 [info]: frame B:188861 Avg QP:19.31 size: 2511

Общее
Уникальный идентификатор : 170691245202939085995635419409055633051 (0x8069F02343F633269F452F065FF24E9B)
Полное имя : M:$newBlade Runner 2049 (2017)Blade.Runner.2049.2017.BDRip-AVC.RUS.stalkerok.new-team.mkv
Формат : Matroska
Версия формата : Version 4 / Version 2
Размер файла : 1,41 Гбайт
Продолжительность : 2 ч. 43 м.
Общий поток : 1236 Кбит/сек
Название фильма : Blade Runner 2049 (2017) (Rip by stalkerok)
Дата кодирования : UTC 2018-01-04 23:16:57
Программа кодирования : mkvmerge v8.6.1 ('Flying') 64bit
Библиотека кодирования : libebml v1.3.3 + libmatroska v1.4.4

Видео
Идентификатор : 1
Формат : AVC
Формат/Информация : Advanced Video Codec
Профиль формата : [email protected]
Параметр CABAC формата : Да
Параметр ReFrames формата : 15 кадров
Идентификатор кодека : V_MPEG4/ISO/AVC
Продолжительность : 2 ч. 43 м.
Битрейт : 786 Кбит/сек
Ширина : 960 пикселей
Высота : 400 пикселей
Соотношение сторон : 2,40:1
Режим частоты кадров : Постоянный
Частота кадров : 23,976 (24000/1001) кадра/сек
Цветовое пространство : YUV
Субдискретизация насыщенности : 4:2:0
Битовая глубина : 8 бит
Тип развёртки : Прогрессивная
Бит/(Пиксели*Кадры) : 0.085
Размер потока : 919 Мбайт (64%)
Заголовок : Blade Runner 2049 (2017) (Rip by stalkerok)
Библиотека кодирования : x264 core 152 r2851kMod ba24899
Настройки программы : cabac=1 / ref=15 / deblock=1:-3:-2 / analyse=0x3:0x133 / me=umh / subme=10 / psy=1 / fade_compensate=0.00 / psy_rd=1.00:0.00 / mixed_ref=1 / me_range=32 / chroma_me=1 / trellis=2 / 8x8dct=1 / cqm=0 / deadzone=21,11 / fast_pskip=0 / chroma_qp_offset=-2 / threads=12 / lookahead_threads=3 / sliced_threads=0 / nr=0 / decimate=1 / interlaced=0 / bluray_compat=0 / constrained_intra=0 / bframes=15 / b_pyramid=2 / b_adapt=2 / b_bias=0 / direct=3 / weightb=1 / open_gop=0 / weightp=2 / keyint=240 / keyint_min=23 / scenecut=40 / intra_refresh=0 / rc_lookahead=60 / rc=crf / mbtree=0 / crf=18.6000 / qcomp=0.65 / qpmin=0 / qpmax=69 / qpstep=4 / vbv_maxrate=50000 / vbv_bufsize=62500 / crf_max=0.0 / nal_hrd=none / filler=0 / ip_ratio=1.40 / pb_ratio=1.30 / aq=3:0.90 / zones=219804,235152,q=35
Default : Да
Forced : Нет

Аудио
Идентификатор : 2
Формат : AC-3
Формат/Информация : Audio Coding 3
Расширение режима : CM (complete main)
Параметр Endianness формата : Big
Идентификатор кодека : A_AC3
Продолжительность : 2 ч. 43 м.
Вид битрейта : Постоянный
Битрейт : 448 Кбит/сек
Каналы : 6 каналов
Расположение каналов : Front: L C R, Side: L R, LFE
Частота : 48,0 КГц
Частота кадров : 31,250 кадров/сек (1536 spf)
Метод сжатия : С потерями
Размер потока : 524 Мбайт (36%)
Язык : Russian
Default : Да
Forced : Нет

Текст #1
Идентификатор : 3
Формат : UTF-8
Идентификатор кодека : S_TEXT/UTF8
Идентификатор кодека/Информация : UTF-8 Plain Text
Продолжительность : 2 ч. 41 м.
Битрейт : 1 бит/сек
Count of elements : 34
Размер потока : 1,65 Кбайт (0%)
Заголовок : Forced
Язык : Russian
Default : Да
Forced : Нет

Текст #2
Идентификатор : 4
Формат : UTF-8
Идентификатор кодека : S_TEXT/UTF8
Идентификатор кодека/Информация : UTF-8 Plain Text
Продолжительность : 2 ч. 41 м.
Битрейт : 39 бит/сек
Count of elements : 1050
Размер потока : 46,4 Кбайт (0%)
Язык : Russian
Default : Нет
Forced : Нет

Меню
00:00:00.000 : en:Chapter 1
00:12:36.172 : en:Chapter 2
00:23:29.282 : en:Chapter 3
00:37:00.885 : en:Chapter 4
00:42:50.317 : en:Chapter 5
00:49:24.503 : en:Chapter 6
00:58:35.553 : en:Chapter 7
01:04:10.680 : en:Chapter 8
01:15:47.292 : en:Chapter 9
01:25:12.482 : en:Chapter 10
01:36:15.060 : en:Chapter 11
01:50:55.106 : en:Chapter 12
02:01:36.872 : en:Chapter 13
02:08:40.379 : en:Chapter 14
02:16:42.485 : en:Chapter 15
02:27:46.732 : en:Chapter 16



Скачать Blade.Runner.2049.2017.BDRip-AVC.RUS.stalkerok..torrent

просмотры: 2

Post Comment