Детектив Зарубежные фильмы

Три могилы / The Three Burials of Melquiades Estrada (2005) BDRip-AVC от ExKinoRay | P

Информация о фильме
Название: Три могилы
Оригинальное название: The Three Burials of Melquiades Estrada
Год выхода: 2005
Жанр: Драма, криминал, детектив, приключения, вестерн
Режиссер: Томми Ли Джонс
В ролях: Томми Ли Джонс, Бэрри Пеппер, Хулио Седилло, Дуайт Йокам, Ванесса Боше, Ричард Джонс, Гильермо Арриага, Джейнуари Джоунс, Ричард Диллард, Мелисса Лео, Габриэль Олдс, Монтсеррат Де Леон, Полина Рейес, Мел Родригес, Чарлз Сандерс, Брент Смига, Спайк Спенсер, Анджелина Торрес, Виктория Джонс, Барри Тубб

О фильме:
Одного неудачливого человека убивают и хоронят в техасской пустыне. Потом найденное тело заново хоронят на кладбище в чужой могиле. Местный фермер Пит Перкинс, похищает полицейского и требует от него эксгумации трупа. С телом, привязанным к мулу, и плененным полицейским Пит начинает опасное и полное странностей путешествие в Мексику.

Страна: США, Франция, Europa Corp., The Javelina Film Company, BUF Compagnie, Digiscope, Harlow Effects, Pacific Title & Art Studio
Продолжительность: 02:01:30
Перевод: Профессиональный многоголосый
Субтитры: Русские, английские

Файл
Кодек: H.264
Качество: BDRip-AVC
Видео: MPEG-4 AVC, 730 Кбит/с, 720×306
Звук: Русский, английский (AAC, 2 ch, 64 Кбит/с)

MediaInfo
Формат : Matroska
Версия формата : Version 4 / Version 2
Размер файла : 748 Мбайт
Продолжительность : 2 ч. 1 м.
Общий поток : 860 Кбит/сек
Название фильма : Tri.mogily.2005.x264.BDRip.AVC.ExKinoRay
Дата кодирования : UTC 2018-01-04 15:14:18
Программа кодирования : mkvmerge v17.0.0 ('Be Ur Friend') 64-bit
Библиотека кодирования : libebml v1.3.5 + libmatroska v1.4.8

Видео
Идентификатор : 1
Формат : AVC
Формат/Информация : Advanced Video Codec
Профиль формата : [email protected]
Параметр CABAC формата : Да
Параметр ReFrames формата : 10 кадров
Идентификатор кодека : V_MPEG4/ISO/AVC
Продолжительность : 2 ч. 1 м.
Битрейт : 730 Кбит/сек
Ширина : 720 пикселей
Высота : 306 пикселей
Соотношение сторон : 2,35:1
Режим частоты кадров : Постоянный
Частота кадров : 24,000 кадра/сек
Цветовое пространство : YUV
Субдискретизация насыщенности : 4:2:0
Битовая глубина : 8 бит
Тип развёртки : Прогрессивная
Бит/(Пиксели*Кадры) : 0.138
Размер потока : 634 Мбайт (85%)
Заголовок : ExKinoRay
Библиотека кодирования : x264 core 152 r2851 ba24899
Настройки программы : cabac=1 / ref=10 / deblock=1:-2:-2 / analyse=0x3:0x133 / me=umh / subme=11 / psy=1 / psy_rd=1.00:0.00 / mixed_ref=1 / me_range=32 / chroma_me=1 / trellis=2 / 8x8dct=1 / cqm=0 / deadzone=21,11 / fast_pskip=0 / chroma_qp_offset=-3 / threads=6 / lookahead_threads=1 / sliced_threads=0 / nr=0 / decimate=0 / interlaced=0 / bluray_compat=0 / constrained_intra=0 / bframes=10 / b_pyramid=2 / b_adapt=2 / b_bias=0 / direct=3 / weightb=1 / open_gop=0 / weightp=2 / keyint=240 / keyint_min=23 / scenecut=40 / intra_refresh=0 / rc_lookahead=40 / rc=2pass / mbtree=0 / bitrate=730 / ratetol=1.0 / qcomp=0.60 / qpmin=0 / qpmax=69 / qpstep=4 / cplxblur=20.0 / qblur=0.5 / vbv_maxrate=50000 / vbv_bufsize=62500 / nal_hrd=none / filler=0 / ip_ratio=1.40 / pb_ratio=1.30 / aq=2:1.00
Язык : English
Default : Да
Forced : Нет

Аудио #1
Идентификатор : 2
Формат : AAC
Формат/Информация : Advanced Audio Codec
Профиль формата : LC
Идентификатор кодека : A_AAC
Продолжительность : 2 ч. 1 м.
Битрейт : 64,0 Кбит/сек
Каналы : 2 канала
Расположение каналов : Front: L R
Частота : 48,0 КГц
Частота кадров : 46,875 кадров/сек (1024 spf)
Метод сжатия : С потерями
Задержка видео : 9 мс.
Размер потока : 55,4 Мбайт (7%)
Язык : Russian
Default : Да
Forced : Нет

Аудио #2
Идентификатор : 3
Формат : AAC
Формат/Информация : Advanced Audio Codec
Профиль формата : LC
Идентификатор кодека : A_AAC
Продолжительность : 2 ч. 1 м.
Битрейт : 63,8 Кбит/сек
Каналы : 2 канала
Расположение каналов : Front: L R
Частота : 48,0 КГц
Частота кадров : 46,875 кадров/сек (1024 spf)
Метод сжатия : С потерями
Задержка видео : 9 мс.
Размер потока : 55,5 Мбайт (7%)
Язык : English
Default : Нет
Forced : Нет

Текст #1
Идентификатор : 4
Формат : UTF-8
Идентификатор кодека : S_TEXT/UTF8
Идентификатор кодека/Информация : UTF-8 Plain Text
Продолжительность : 1 ч. 55 м.
Битрейт : 37 бит/сек
Count of elements : 753
Размер потока : 31,5 Кбайт (0%)
Язык : Russian
Default : Нет
Forced : Нет

Текст #2
Идентификатор : 5
Формат : UTF-8
Идентификатор кодека : S_TEXT/UTF8
Идентификатор кодека/Информация : UTF-8 Plain Text
Продолжительность : 1 ч. 53 м.
Битрейт : 30 бит/сек
Count of elements : 723
Размер потока : 25,0 Кбайт (0%)
Язык : English
Default : Нет
Forced : Нет

Меню
00:00:00.000 : en:Chapter 01
00:08:47.333 : en:Chapter 02
00:16:02.416 : en:Chapter 03
00:25:02.416 : en:Chapter 04
00:42:32.666 : en:Chapter 05
00:56:11.500 : en:Chapter 06
01:00:17.333 : en:Chapter 07
01:10:51.416 : en:Chapter 08
01:17:16.250 : en:Chapter 09
01:22:00.250 : en:Chapter 10
01:29:27.250 : en:Chapter 11
01:35:00.875 : en:Chapter 12
01:40:00.000 : en:Chapter 13
01:44:49.083 : en:Chapter 14
01:50:22.875 : en:Chapter 15
01:56:20.916 : en:Chapter 16

Скриншоты


Релиз от:


Скачать Tri.mogily.2005.x264.BDRip.AVC.ExKinoRay.mkv.torrent

просмотры: 0

Post Comment