Зарубежные фильмы Комедия

Улика / Clue (1985) BDRip 720p | P

Информация о фильме
Название: Улика
Оригинальное название: Clue
Год выхода: 1985
Жанр: триллер, комедия, криминал, детектив
Режиссер: Джонатан Линн
В ролях: Айлин Бреннан, Тим Карри, Мэдлин Кан, Кристофер Ллойд, Майкл МакКин, Мартин Мулл, Лесли Энн Уоррен, Коллин Кэмп, Ли Винг, Билл Хендерсон

О фильме:
Семь неизменных персонажей: гости, приглашенные в дом — мистер Грин, профессор Плам, миссис Пикок, полковник Мастард, миссис Уайт приезжают в загородное поместье, где их встречают дворецкий Уодсворт и хозяин дома, мистер Бодди, с убийства которого и начинается самое интересное.
Гостям во главе с неутомимым дворецким (или вовсе не дворецким) предстоит «вычислить» таинственного убийцу. У каждого, как выясняется, есть свой мотив, свое орудие преступления. Это может быть канделябр, отрезок трубы, гаечный ключ, веревка, револьвер или нож. У каждого из подозреваемых — своя страшная тайна.
По мере того, как гости изучают дом и друг друга, в особняке появляются новые люди, с первого взгляда непричастные к делу, но которых, как это ни прискорбно, ждёт печальная участь мистера Бодди.

Страна: США
Продолжительность: 01:36:52
Перевод: Профессиональный (многоголосый, закадровый)

Файл
Кодек: x264
Качество: BDRip (источник: BD Remux)
Видео: 1280×720 (16:9), 23.976 fps, 8287 Кбит/сек
Аудио: AC-3, 2 ch, 192 kbps (Rus) Профессиональный (многоголосый, закадровый)
Субтитры: английские

Скриншоты

MI
Общее
Уникальный идентификатор : 226909068045292815460155638953310912045 (0xAAB518CD2315F2F984EB9F29A05F7E2D)
Полное имя : F:ФильмыУлика.1985.Clue.720p.mkv
Формат : Matroska
Версия формата : Version 2
Размер файла : 5,85 Гбайт
Продолжительность : 1 ч. 36 м.
Общий поток : 8651 Кбит/сек
Дата кодирования : UTC 2013-10-22 12:21:38
Программа кодирования : mkvmerge v5.8.0 ('No Sleep / Pillow') built on Sep 2 2012 15:37:04
Библиотека кодирования : libebml v1.2.3 + libmatroska v1.3.0

Видео
Идентификатор : 1
Формат : AVC
Формат/Информация : Advanced Video Codec
Профиль формата : [email protected]
Параметр CABAC формата : Да
Параметр ReFrames формата : 9 кадров
Идентификатор кодека : V_MPEG4/ISO/AVC
Продолжительность : 1 ч. 36 м.
Битрейт : 8287 Кбит/сек
Ширина : 1280 пикселей
Высота : 720 пикселей
Соотношение сторон : 16:9
Режим частоты кадров : Постоянный
Частота кадров : 23,976 кадра/сек
Цветовое пространство : YUV
Субдискретизация насыщенности : 4:2:0
Битовая глубина : 8 бит
Тип развёртки : Прогрессивная
Бит/(Пиксели*Кадры) : 0.375
Размер потока : 5,61 Гбайт (96%)
Библиотека кодирования : x264 core 138 r2358 9e941d1
Настройки программы : cabac=1 / ref=9 / deblock=1:-2:-1 / analyse=0x3:0x133 / me=umh / subme=10 / psy=1 / psy_rd=1.00:0.00 / mixed_ref=1 / me_range=32 / chroma_me=1 / trellis=2 / 8x8dct=1 / cqm=0 / deadzone=21,11 / fast_pskip=1 / chroma_qp_offset=-2 / threads=6 / lookahead_threads=1 / sliced_threads=0 / nr=0 / decimate=1 / interlaced=0 / bluray_compat=0 / constrained_intra=0 / bframes=8 / b_pyramid=2 / b_adapt=2 / b_bias=0 / direct=3 / weightb=1 / open_gop=0 / weightp=2 / keyint=240 / keyint_min=23 / scenecut=40 / intra_refresh=0 / rc=crf / mbtree=0 / crf=18.0 / qcomp=0.60 / qpmin=0 / qpmax=69 / qpstep=4 / ip_ratio=1.40 / pb_ratio=1.30 / aq=1:1.00
Язык : English
Default : Да
Forced : Нет

Аудио
Идентификатор : 2
Формат : AC-3
Формат/Информация : Audio Coding 3
Расширение режима : CM (complete main)
Параметр Endianness формата : Big
Идентификатор кодека : A_AC3
Продолжительность : 1 ч. 36 м.
Вид битрейта : Постоянный
Битрейт : 192 Кбит/сек
Каналы : 2 канала
Расположение каналов : Front: L R
Частота : 48,0 КГц
Битовая глубина : 16 бит
Метод сжатия : С потерями
Размер потока : 133 Мбайт (2%)
Язык : Russian
Default : Да
Forced : Нет

Текст
Идентификатор : 3
Формат : PGS
Режим смешивания : zlib
Идентификатор кодека : S_HDMV/PGS
Идентификатор кодека/Информация : The same subtitle format used on BDs/HD-DVDs
Язык : English
Default : Нет
Forced : Нет

Меню
00:00:00.000 : en:
00:04:36.943 : en:
00:10:14.113 : en:
00:15:23.047 : en:
00:18:47.709 : en:
00:25:05.128 : en:
00:27:45.789 : en:
00:34:08.588 : en:
00:39:12.016 : en:
00:42:57.283 : en:
00:51:30.378 : en:
00:56:35.642 : en:
01:02:50.516 : en:
01:07:47.396 : en:
01:18:58.942 : en:

x264
x264 [info]: frame I:1185 Avg QP:17.12 size:151832
x264 [info]: frame P:26012 Avg QP:18.18 size: 82077
x264 [info]: frame B:112147 Avg QP:20.44 size: 34048


Скачать Улика.1985.Clue.720p.mkv.torrent

просмотры: 1

Post Comment