Зарубежные фильмы Криминал

Только одна ночь / Tian liang zhi qian (2016) BDRemux 1080р | L1, L2

Информация о фильме
Название: Только одна ночь
Оригинальное название: Tian liang zhi qian
Год выхода: 2016
Жанр: боевик, драма, мелодрама, криминал
Режиссер: Мэтт У
В ролях: Аарон Квок, Ян Цзышань, Хао Лэй, Энди Он, Джек Као, Оуэн О’Брайен, Ли Хаофэй

Описание: Гао Е выходит из тюрьмы и вспоминает события той безумной ночи, которая привела его за решётку. Восемь лет назад он проигрывал все деньги, которые попадали ему в руки, и был должен всем вокруг. Бандиты угрожали забрать его дочь, и Гао Е уже думал покончить с собой, когда в его дешёвую комнату заваливается девушка по вызову Момо. Как-то слово за слово, и хитрец уже разводит девушку на деньги, чтобы тут же в казино спустить всё под чистую. Момо прицепляется к Гао Е и говорит, что не отстанет от него, пока тот не вернёт ей всю сумму, заработанную непосильным трудом.

Страна: Китай
Продолжительность: 01:41:49
Перевод 1: Любительский (одноголосый закадровый) О. Воротилин, по субтитрам фансаб-группы "Альянс"
Перевод 2: Любительский (двухголосый закадровый) den904 & DeadSno, по переводу С. Скворцова
Субтитры: русские (фансаб-группа "Альянс"), английские
Оригинальная аудиодорожка: китайский

Файл
Качество: BDRemux 1080р
Видео: AVC / 1920×1080 / 16:9 / 24.0 fps / 24819 kbps / [email protected]
Аудио 1: Rus / DTS-HD MA / 48.0 KHz / 5.1 / 2196 kbps / 16 bit (DTS Core 48.0 KHz / 5.1 / 1509 kbps / 16 bit) VO / О. Воротилин
Аудио 2: Rus / AC3 / 48.0 KHz / 2.0 / 192 kbps / DVO / den904 & DeadSno
Аудио 3: Chi / DTS-HD MA / 48.0 KHz / 5.1 / 2199 kbps / 16 bit (DTS Core 48.0 KHz / 5.1 / 1509 kbps / 16 bit)

Скриншоты

MediaInfo
Общее
Уникальный идентификатор : 250415938572275145106266538960095254701 (0xBC645AFFBE07E7AF70BA55BADE4F98AD)
Полное имя : One.Night.Only.2016.BDRemux.1080p.mkv
Формат : Matroska
Версия формата : Version 4 / Version 2
Размер файла : 20,9 Гбайт
Продолжительность : 1 ч. 41 м.
Режим общего битрейта : Переменный
Общий поток : 29,4 Мбит/сек
Название фильма : One.Night.Only.2016.BDRemux.1080p-porvaliparus
Дата кодирования : UTC 2018-01-04 00:58:52
Программа кодирования : mkvmerge v19.0.0 ('Brave Captain') 64-bit
Библиотека кодирования : libebml v1.3.5 + libmatroska v1.4.8

Видео
Идентификатор : 1
Формат : AVC
Формат/Информация : Advanced Video Codec
Профиль формата : [email protected]
Настройки формата : CABAC / 4 Ref Frames
Параметр CABAC формата : Да
Параметр RefFrames формата : 4 кадра
Параметр GOP формата : M=3, N=24
Идентификатор кодека : V_MPEG4/ISO/AVC
Продолжительность : 1 ч. 41 м.
Вид битрейта : Переменный
Битрейт : 24,8 Мбит/сек
Максимальный битрейт : 30,0 Мбит/сек
Ширина : 1920 пикселей
Высота : 1080 пикселей
Соотношение сторон : 16:9
Режим частоты кадров : Постоянный
Частота кадров : 24,000 кадра/сек
Стандарт вещания : NTSC
Цветовое пространство : YUV
Субдискретизация насыщенности : 4:2:0
Битовая глубина : 8 бит
Тип развёртки : Прогрессивная
Бит/(Пиксели*Кадры) : 0.499
Размер потока : 17,7 Гбайт (84%)
Заголовок : One.Night.Only.2016.BDRemux.1080p
Default : Да
Forced : Нет
Цветовой диапазон : Limited
Основные цвета : BT.709
Характеристики трансфера : BT.709
Коэффициенты матрицы : BT.709

Аудио #1
Идентификатор : 2
Формат : DTS
Формат/Информация : Digital Theater Systems
Профиль формата : MA / Core
Идентификатор кодека : A_DTS
Продолжительность : 1 ч. 41 м.
Вид битрейта : Переменный / Постоянный
Битрейт : 2196 Кбит/сек / 1509 Кбит/сек
Каналы : 6 каналов
Расположение каналов : Front: L C R, Side: L R, LFE
Частота : 48,0 КГц
Частота кадров : 93,750 кадра/сек (512 SPF)
Битовая глубина : 16 бит
Метод сжатия : Без потерь / Lossy
Размер потока : 1,56 Гбайт (7%)
Заголовок : VO [О. Воротилин]
Язык : Russian
Default : Да
Forced : Нет

Аудио #2
Идентификатор : 3
Формат : AC-3
Формат/Информация : Audio Coding 3
Идентификатор кодека : A_AC3
Продолжительность : 1 ч. 41 м.
Вид битрейта : Постоянный
Битрейт : 192 Кбит/сек
Каналы : 2 канала
Расположение каналов : Front: L R
Частота : 48,0 КГц
Частота кадров : 31,250 кадров/сек (1536 SPF)
Битовая глубина : 16 бит
Метод сжатия : С потерями
Размер потока : 140 Мбайт (1%)
Заголовок : DVO [den904 & DeadSno]
Язык : Russian
Default : Нет
Forced : Нет

Аудио #3
Идентификатор : 4
Формат : DTS
Формат/Информация : Digital Theater Systems
Профиль формата : MA / Core
Идентификатор кодека : A_DTS
Продолжительность : 1 ч. 41 м.
Вид битрейта : Переменный / Постоянный
Битрейт : 2199 Кбит/сек / 1509 Кбит/сек
Каналы : 6 каналов
Расположение каналов : Front: L C R, Side: L R, LFE
Частота : 48,0 КГц
Частота кадров : 93,750 кадра/сек (512 SPF)
Битовая глубина : 16 бит
Метод сжатия : Без потерь / Lossy
Размер потока : 1,56 Гбайт (7%)
Язык : Chinese
Default : Нет
Forced : Нет

Текст #1
Идентификатор : 5
Формат : UTF-8
Идентификатор кодека : S_TEXT/UTF8
Идентификатор кодека/Информация : UTF-8 Plain Text
Продолжительность : 1 ч. 35 м.
Битрейт : 70 бит/сек
ElementCount : 1300
Размер потока : 49,5 Кбайт (0%)
Заголовок : Фансаб-группа "Альянс"
Язык : Russian
Default : Нет
Forced : Нет

Текст #2
Идентификатор : 6
Формат : UTF-8
Идентификатор кодека : S_TEXT/UTF8
Идентификатор кодека/Информация : UTF-8 Plain Text
Продолжительность : 1 ч. 32 м.
Битрейт : 40 бит/сек
ElementCount : 1368
Размер потока : 27,2 Кбайт (0%)
Язык : English
Default : Нет
Forced : Нет

Меню
00:00:00.000 : :Глава 01
00:08:38.323 : :Глава 02
00:18:01.208 : :Глава 03
00:30:01.666 : :Глава 04
00:38:42.000 : :Глава 05
00:45:45.583 : :Глава 06
00:59:21.375 : :Глава 07
01:09:06.791 : :Глава 08
01:16:18.458 : :Глава 09
01:22:26.416 : :Глава 10
01:31:27.833 : :Глава 11
01:36:44.125 : :Глава 12


Скачать One.Night.Only.2016.BDRemux.1080p.mkv.torrent

просмотры: 1

Post Comment