Зарубежные фильмы Исторический

Основание армии / The Founding of an Army / Jian jun da ye (2017) WEBRip 720p | L

Информация о фильме
Название: Основание армии
Оригинальное название: The Founding of an Army / Jian jun da ye
Год выхода: 2017
Жанр: драма, исторический, военный
Режиссер: Эндрю Лау
В ролях:
Лю Е — Мао Цзэдун ,Чжу Явэнь — Чжоу Эньлай, Уоллес Хо — Чан Кайши, Хуан Чжичжун — Чжу Дэ, Ван Цзинчунь — Хэ Лун, Оу Хао — Е Тин, Чжан, Исин — Лу Дэмин, Бай Юй — Цай Цинчуань, Ли Сянь — Ло Жунчжэнь, Ма Тяньюй — Линь Бяо, Ли Ифэн — Хэ Чангун
Уильям Чан — босс триады, Лю Хаожань — Су Юй, Тони Ян — Цянь Дацзюнь, Бай Кэ — Цюй Цюбо, Дун Цзыцзянь — Дэн Сяопин, Лю Хао — Е Цзяньин, Чэнь Сяо — Жэнь Биши, Ли Миньчэн — Чжоу Ицюнь, Ван Чжао — Тань Чжэн, Ли Цинь — Ян Кайхуэй, Сун Цзя — Сун Цинлин, Гуань Сяотун — Дэн Инчао, Чжоу Дунъюй — Фань Гуйся, Джойс Фэн — Пэн Юаньхуа, Кристал Чжан — Сун Мэйлин

О фильме:
Весной 1927 года Чан Кайши предал революцию. В ходе жестоких партийных чисток, вошедших в историю КНР как «шанхайская резня», коммунисты и им сочувствующие были удалены из рядов Гоминьдана. Или почти удалены. 1 августа 1927 года революционные части гоминьдановской армии, а также примкнувшие к ним рабочие дружины и крестьянские отряды самообороны, подняли мятеж и захватили гарнизон в городе Наньчан. С тех пор 1 августа 1927 года отмечается в КНР как день рождения Народно-освободительной армии Китая.


Страна: Китай
Продолжительность: 02:13:07
Перевод: Любительский, многоголосый, закадровый (Перевод с китайского: FSG #404 и Aeterna temple, [Горчица, Nirvana, Аля Ру, Emilia the Strange, FoxyJazz и Colochka], редакция: Горчица, сверка с оригиналом: Шао Лу и Curly, тайминг: Xingnee, Горчица, координация проекта: Горчица и Фрези Грант, озвучка: студия "Колобок", "XDUB DORAMA" и "LOVELY VOX", закадровый текст читали: Den904, Izanami, Lе Сhеvаliеr, Elrid, DeadSno, тайминг и обработка звука: Lе Сhеvаliеr)

Примечание: Фильм переведён при содействии группы "Китайские фильмы и сериалы" и при поддержке фан-сообществ Чжан Исина, Ма Тяньюя и Уоллеса Хо.

Файл
Кодек: V_MPEG4/ISO/AVC
Качество: WEBRip 720p
Видео: 1280×536, 24.000 FPS, 5236 kb/s
Звук: AC-3, 48.0 kHz, 2ch, 192 kb/s
Субтитры: русские (встроенные, сноски)

Скриншоты

MediaInfo
General
Unique ID : 193856397352026706675284184956205363870 (0x91D76251916C9556B93604BF310D729E)
Complete name : ОСНОВАНИЕ АРМИИ [MVO].mkv
Format : Matroska
Format version : Version 4 / Version 2
File size : 5.04 GiB
Duration : 2 h 13 min
Overall bit rate : 5 418 kb/s
Movie name : Jubowo @ WiKi
Encoded date : UTC 2018-01-11 05:45:28
Writing application : mkvmerge v6.2.0 ('Promised Land') built on Apr 28 2013 12:22:01
Writing library : libebml v1.3.0 + libmatroska v1.4.0

Video
ID : 2
Format : AVC
Format/Info : Advanced Video Codec
Format profile : [email protected]
Format settings, CABAC : Yes
Format settings, RefFrames : 12 frames
Codec ID : V_MPEG4/ISO/AVC
Duration : 2 h 13 min
Bit rate : 5 236 kb/s
Width : 1 280 pixels
Height : 536 pixels
Display aspect ratio : 2.40:1
Frame rate mode : Constant
Frame rate : 24.000 FPS
Color space : YUV
Chroma subsampling : 4:2:0
Bit depth : 8 bits
Scan type : Progressive
Bits/(Pixel*Frame) : 0.318
Stream size : 4.76 GiB (94%)
Writing library : x264 core 129 r2245+704+36 8e61944 tMod+MixAQ [[email protected]:2:0 X86_64]
Encoding settings : cabac=1 / ref=12 / deblock=1:-3:-3 / analyse=0x3:0x133 / me=umh / subme=11 / psy=1 / fade_compensate=0.00 / psy_rd=1.05:0.10 / mixed_ref=1 / me_range=32 / chroma_me=1 / trellis=2 / 8x8dct=1 / cqm=0 / deadzone=21,11 / fast_pskip=0 / chroma_qp_offset=-3 / threads=18 / lookahead_threads=3 / sliced_threads=0 / nr=0 / decimate=0 / interlaced=0 / bluray_compat=0 / constrained_intra=0 / fgo=0 / bframes=10 / b_pyramid=2 / b_adapt=2 / b_bias=0 / direct=3 / weightb=1 / open_gop=0 / weightp=2 / keyint=250 / keyint_min=24 / scenecut=40 / intra_refresh=0 / rc_lookahead=80 / rc=2pass / mbtree=1 / bitrate=5236 / ratetol=1.0 / qcomp=0.70 / qpmin=0 / qpmax=69 / qpstep=4 / cplxblur=20.0 / qblur=0.5 / ip_ratio=1.40 / aq=1 / aq-strength=0.85 / aq-sensitivity=10.00 / aq-ifactor=1.00 / aq-pfactor=1.00 / aq-bfactor=1.00 / aq2=0
Language : Russian
Default : Yes
Forced : No

Audio
ID : 3
Format : AC-3
Format/Info : Audio Coding 3
Format settings, Endianness : Big
Codec ID : A_AC3
Duration : 2 h 13 min
Bit rate mode : Constant
Bit rate : 192 kb/s
Channel(s) : 2 channels
Channel positions : Front: L R
Sampling rate : 48.0 kHz
Frame rate : 31.250 FPS (1536 SPF)
Bit depth : 16 bits
Compression mode : Lossy
Stream size : 183 MiB (4%)
Service kind : Complete Main
Default : Yes
Forced : No

Text
ID : 1
Format : ASS
Codec ID : S_TEXT/ASS
Codec ID/Info : Advanced Sub Station Alpha
Compression mode : Lossless
Default : Yes
Forced : No

Релиз от: & LOVELY VOX


Скачать The.Founding.of.an.Army.torrent

просмотры: 10

Post Comment