Аниме

Детектив Конан OVA-9: Незнакомец через 10 лет / Detective Conan: The Stranger of 10 Years (2009) DVDRip-AVC | L

Страна: Япония
Год выпуска: 2009
Жанр: приключения, детектив
Тип: OVA
Продолжительность: (1 эп.), 25 мин.
Режиссер: Оти Хирохито
Студия: TMS

Описание:
Конан заболел. Его будит Хайбара и рассказывает, что создала еще один прототип антидота Апотоксину-4869. Конан бросается к ней чтобы опробовать его. Когда он выпивает антидот, то теряет сознание и переносится на десять лет вперед.

Доп. информация:
Релиз GSGroup

Качество: DVDRip
Тип релиза: Без хардсаба
Формат видео: MKV
Видео: AVC 864×480 23.976 fps 1200 Kbps 8 bits
Аудио 1: AC-3 192 Kbps 2 channels 48.0 KHz Язык Русский (в составе контейнера) ; Озвучка: Любительская одноголосая: Persona99
Аудио 2: AC-3 192 Kbps 2 channels 48.0 KHz Язык Японский
Субтитры: ass встроенные Язык субтитров русский ; Перевод: Tachikoma h, Teisson h. Редактура: Smarter, лирика: korrah

Подробные тех. данные
General
Unique ID : 224055072222688823212722231395062700300 (0xA88F6FF17CB898C1AAA96FFFC788D90C)
Complete name : Detective Conan OVA-09 ~The Stranger of 10 Years~[DVDRIP_X264_AC3].rus.jpn.mkv
Format : Matroska
Format version : Version 2
File size : 254 MiB
Duration : 22mn 12s
Overall bit rate : 1 598 Kbps
Encoded date : UTC 2017-11-30 09:26:38
Writing application : mkvmerge v4.0.0 ('The Stars were mine') built on Jun 6 2010 16:18:42
Writing library : libebml v1.0.0 + libmatroska v1.0.0
Attachements : CALIBRIB.TTF / CAMBRIAB.TTF / trebuc.ttf / trebucbd.ttf / trebucit.ttf

Video
ID : 1
Format : AVC
Format/Info : Advanced Video Codec
Format profile : [email protected]
Format settings, CABAC : Yes
Format settings, ReFrames : 8 frames
Codec ID : V_MPEG4/ISO/AVC
Duration : 22mn 12s
Bit rate : 1 200 Kbps
Width : 864 pixels
Height : 480 pixels
Display aspect ratio : 16:9
Frame rate mode : Constant
Frame rate : 23.976 fps
Color space : YUV
Chroma subsampling : 4:2:0
Bit depth : 8 bits
Scan type : Progressive
Bits/(Pixel*Frame) : 0.121
Stream size : 188 MiB (74%)
Title : Video
Writing library : x264 core 67 r1139 1024283
Encoding settings : cabac=1 / ref=8 / deblock=1:1:1 / analyse=0x3:0x133 / me=umh / subme=7 / psy_rd=0.4:0.0 / mixed_ref=1 / me_range=32 / chroma_me=1 / trellis=2 / 8x8dct=1 / cqm=0 / deadzone=21,11 / chroma_qp_offset=-2 / threads=6 / nr=0 / decimate=1 / mbaff=0 / bframes=6 / b_pyramid=1 / b_adapt=2 / b_bias=0 / direct=3 / wpredb=1 / keyint=250 / keyint_min=25 / scenecut=40 / rc=2pass / bitrate=1200 / ratetol=1.0 / qcomp=0.60 / qpmin=10 / qpmax=51 / qpstep=4 / cplxblur=20.0 / qblur=0.5 / ip_ratio=1.40 / pb_ratio=1.30 / aq=1:1.00
Language : Japanese
Default : Yes
Forced : No

Audio #1
ID : 2
Format : AC-3
Format/Info : Audio Coding 3
Mode extension : CM (complete main)
Format settings, Endianness : Big
Codec ID : A_AC3
Duration : 22mn 12s
Bit rate mode : Constant
Bit rate : 192 Kbps
Channel(s) : 2 channels
Channel positions : Front: L R
Sampling rate : 48.0 KHz
Compression mode : Lossy
Stream size : 30.5 MiB (12%)
Title : Persona99
Language : Russian
Default : Yes
Forced : No

Audio #2
ID : 3
Format : AC-3
Format/Info : Audio Coding 3
Mode extension : CM (complete main)
Format settings, Endianness : Big
Codec ID : A_AC3
Duration : 22mn 12s
Bit rate mode : Constant
Bit rate : 192 Kbps
Channel(s) : 2 channels
Channel positions : Front: L R
Sampling rate : 48.0 KHz
Compression mode : Lossy
Delay relative to video : 14ms
Stream size : 30.5 MiB (12%)
Title : Audio
Language : Japanese
Default : No
Forced : No

Text
ID : 4
Format : ASS
Codec ID : S_TEXT/ASS
Codec ID/Info : Advanced Sub Station Alpha
Compression mode : Lossless
Title : ass
Language : Russian
Default : No
Forced : No

Скриншоты



Скачать Detective_Conan_OVA-09.torrent

просмотры: 0

Post Comment