Зарубежные фильмы Криминал

Залечь на дно в Брюгге / In Bruges (2008) HDRip-AVC от Kaztorrents | D | Open Matte

✦ Залечь на дно в Брюгге / In Bruges ✦

Информация о фильме:
❖ Год выпуска: 2008
❖ Страна: Великобритания, США / Blueprint Pictures, Film4, Focus Features, Scion Films Limited
❖ Жанр: триллер, драма, комедия, криминал
❖ Перевод: Профессиональный (полное дублирование)
❖ Продолжительность: 01:46:43

❖ Режиссер: Мартин МакДона

❖ В ролях: Брендан Глисон, Колин Фаррелл, Рэйф Файнс, Клеменс Поузи, Джордан Прентис, Элизабет Беррингтон, Руди Бломм, Оливер Бонжур, Марк Донован, Энн Элсли, Жан-Марк Фаворин, Эрик Годон, Желько Иванек, Сачи Кимура, Анна Маделей, Луис Намми, Джереми Ренье, Текла Рютен, Тео Стивенсон, Инез Стинтон

❖ Релиз от:
❖ Автор рипа: ProT1gR

Описание фильма:
После того, как наемные убийцы Рэй и Кен запороли в Лондоне важное задание, их злобный шеф Гарри приказывает им отправиться в Брюгге и не высовываться. Оказавшись в старинном бельгийском городке, Рэй от нечего делать флиртует с местной красоткой, пока Кен наслаждается жизнью и неожиданным отпуском. Кажется, ничто не предвещает беду в спокойном городе…

Технические данные файла:
❖ Качество: HDRip-AVC (Исх. Hybrid 1080p [Open Matte])
❖ Формат: MKV
❖ Видео: 1024×576 (16:9), 23.976 fps, MPEG-4 AVC ~ 1 573 kbps (0.111 bit/pixel)
❖ Аудио: AC3, 48.0 KHz, 6 ch, 384 kbps

MI
General
Unique ID : 189331977774783653914258627768225751993 (0x8E700335FEC5C3B3A651066B5E4DE3B9)
Complete name : X:x264In.Bruges.[2008].HDRip-AVC.Open.Matte.[Kaztorrents].mkv
Format : Matroska
Format version : Version 2
File size : 1.46 GiB
Duration : 1 h 46 min
Overall bit rate : 1 957 kb/s
Encoded date : UTC 2018-01-02 18:59:52
Writing application : mkvmerge v7.8.0 ('River Man') 32bit built on Apr 3 2015 12:11:22
Writing library : libebml v1.3.1 + libmatroska v1.4.2

Video
ID : 1
Format : AVC
Format/Info : Advanced Video Codec
Format profile : [email protected]
Format settings, CABAC : Yes
Format settings, ReFrames : 11 frames
Codec ID : V_MPEG4/ISO/AVC
Duration : 1 h 46 min
Bit rate : 1 573 kb/s
Width : 1 024 pixels
Height : 576 pixels
Display aspect ratio : 16:9
Frame rate mode : Constant
Frame rate : 24.000 FPS
Color space : YUV
Chroma subsampling : 4:2:0
Bit depth : 8 bits
Scan type : Progressive
Bits/(Pixel*Frame) : 0.111
Stream size : 1.14 GiB (78%)
Writing library : x264 core 146 r2538 121396c
Encoding settings : cabac=1 / ref=11 / deblock=1:-3:-3 / analyse=0x3:0x113 / me=umh / subme=11 / psy=1 / psy_rd=1.00:0.00 / mixed_ref=1 / me_range=48 / chroma_me=1 / trellis=2 / 8x8dct=1 / cqm=0 / deadzone=21,11 / fast_pskip=0 / chroma_qp_offset=-2 / threads=6 / lookahead_threads=1 / sliced_threads=0 / nr=0 / decimate=0 / interlaced=0 / bluray_compat=0 / constrained_intra=0 / bframes=11 / b_pyramid=2 / b_adapt=2 / b_bias=0 / direct=3 / weightb=1 / open_gop=0 / weightp=2 / keyint=240 / keyint_min=23 / scenecut=40 / intra_refresh=0 / rc_lookahead=40 / rc=2pass / mbtree=0 / bitrate=1573 / ratetol=1.0 / qcomp=0.60 / qpmin=0 / qpmax=69 / qpstep=4 / cplxblur=20.0 / qblur=0.5 / vbv_maxrate=50000 / vbv_bufsize=62500 / nal_hrd=none / filler=0 / ip_ratio=1.40 / pb_ratio=1.30 / aq=1:1.10
Default : Yes
Forced : No

Audio
ID : 2
Format : AC-3
Format/Info : Audio Coding 3
Mode extension : CM (complete main)
Format settings, Endianness : Big
Codec ID : A_AC3
Duration : 1 h 46 min
Bit rate mode : Constant
Bit rate : 384 kb/s
Channel(s) : 6 channels
Channel positions : Front: L C R, Side: L R, LFE
Sampling rate : 48.0 kHz
Frame rate : 31.250 FPS (1536 spf)
Bit depth : 16 bits
Compression mode : Lossy
Stream size : 293 MiB (20%)
Default : Yes
Forced : No

Скриншоты



Скачать In.Bruges.2008.HDRip-AVC.Open.Matte.Kaztorrents.torrent

просмотры: 5

Post Comment