Драма Зарубежные фильмы

Плач горы / Mountain Cry (2015) WEBRip 1080p | L2

Информация о фильме
Название: Плач горы
Оригинальное название: Mountain Cry
Год выхода: 2015
Жанр: драма, мелодрама, криминал
Режиссер: Ларри Ян
В ролях: Лан Юэтин, Цзы-И Ван, Айлэй Юй, Чэн Тай-Шэнь, Го Цзинь, Сюй Цайгэнь

О фильме:
В маленькую горную деревню приходит молодая семья: немая женщина с двумя детьми и её муж с криминальным прошлым. Муж вскоре погибает от несчастного случая и в деревне разворачивается сложная история отношений между немой женщиной, косвенным виновником несчастного случая, и жителями деревни. Раскрывается тёмное и сложное прошлое некоторых участников этой истории.


Страна: Китай
Продолжительность: 01:47:32
Перевод: Любительский, двухголосый, закадровый [Студия "Колобок"], (Перевод: Андрей Березовский, закадровый текст читали: DeadSno и Den904)

Файл
Кодек: V_MPEG4/ISO/AVC
Качество: WEBRip 1080p
Видео: 1920×816, 25.000 FPS, 2600 kb/s
Звук: AC-3, 48.0 kHz, 2ch, 192 kb/s
Субтитры: китайские, английские (хардсаб)

Скриншоты

MediaInfo
General
Unique ID : 208152639303735775988680211780516205451 (0x9C98BD7771D1954CAAE2155F4104538B)
Complete name : Плач горы [Студия Колобок].mkv
Format : Matroska
Format version : Version 4 / Version 2
File size : 2.14 GiB
Duration : 1 h 47 min
Overall bit rate : 2 849 kb/s
Encoded date : UTC 2017-12-24 11:03:38
Writing application : mkvmerge v6.2.0 ('Promised Land') built on Apr 28 2013 12:22:01
Writing library : libebml v1.3.0 + libmatroska v1.4.0

Video
ID : 1
Format : AVC
Format/Info : Advanced Video Codec
Format profile : [email protected]
Format settings, CABAC : Yes
Format settings, RefFrames : 4 frames
Codec ID : V_MPEG4/ISO/AVC
Duration : 1 h 47 min
Bit rate : 2 600 kb/s
Width : 1 920 pixels
Height : 816 pixels
Display aspect ratio : 2.35:1
Frame rate mode : Constant
Frame rate : 25.000 FPS
Color space : YUV
Chroma subsampling : 4:2:0
Bit depth : 8 bits
Scan type : Progressive
Bits/(Pixel*Frame) : 0.066
Stream size : 1.95 GiB (91%)
Default : Yes
Forced : No

Audio
ID : 2
Format : AC-3
Format/Info : Audio Coding 3
Format settings, Endianness : Big
Codec ID : A_AC3
Duration : 1 h 47 min
Bit rate mode : Constant
Bit rate : 192 kb/s
Channel(s) : 2 channels
Channel positions : Front: L R
Sampling rate : 48.0 kHz
Frame rate : 31.250 FPS (1536 SPF)
Bit depth : 16 bits
Compression mode : Lossy
Stream size : 148 MiB (7%)
Service kind : Complete Main
Default : Yes
Forced : No

Релиз от:


Скачать Mountain.Cry.torrent

просмотры: 0

Post Comment