Детский Зарубежные фильмы

Оно / It (2017) BDRip-AVC от ExKinoRay | D, A | Лицензия | Theatrical Cut

Информация о фильме
Название: Оно
Оригинальное название: It
Год выпуска: 2017
Жанр: Ужасы, драма
Режиссер: Андрес Мускетти
В ролях: Джейден Либерер, Джереми Рэй Тейлор, София Лиллис, Финн Вулфард, Чоузен Джейкобс, Джек Грейзер, Уайатт Олефф, Билл Скарсгард, Николас Хэмилтон, Джейк Сим, Логан Томпсон, Оуэн Тиг, Джексон Роберт Скотт, Стивен Богерт, Стюарт Хьюз

Описание:
В маленьком городке Дерри, штат Мэн, уже много веков орудует воплощение липкого ужаса под видом клоуна из бродячего шапито. Его жертвами становятся преимущественно подростки с неокрепшей психикой, которых он предварительно запугивает до аморфного состояния, чтобы затем устроить детишкам кровавую вакханалию в марсианском аду. Местные власти ничего не предпринимают, потому как искренне убеждены, что потерь нет. И лишь небольшая группа детских умов, называющая себя "Клубом Неудачников", успешно противостоит приемам карательной психиатрии. И теперь им придется не только пережить жесточайший кошмар в истории человечества, но и бросить вызов империи зла в ее самых демонических проявлениях.

Страна: США
Студия: New Line Cinema, KatzSmith Productions, Lin Pictures, RatPac-Dune Entertainment, Vertigo Entertainment
Продолжительность: 02:14:42
Перевод: Дублированный | Лицензия
Авторский | Михаил Чадов
Авторский | Андрей Дольский

Файл
Формат: MKV
Качество: BDRip-AVC | исх. Blu-ray 1080p |
Видео: MPEG-4 AVC, 1024×426 (2.40:1), 1581 Kbit/s, 23.976 fps, 0,151 bpp
Звук:
Аудио1: 48 kHz, AC3, 5.1, 448 Kbps | RUS
Аудио2: 48 kHz, AC3, 5.1, 448 Kbps | Rus (Чадов)
Аудио3: 48 kHz, AC3, 5.1, 384 Kbps | Rus (Дольский)
Аудио4: 48 kHz, AC3, 2.0, 192 Kbps | UKR)
Аудио5: 48 kHz, AC3, 5.1, 448 Kbps | Eng
Субтитры: Русские (forced, full), украинские (forced), английские

Без какой-либо рекламы
Навигация по главам: есть

MI
General
Unique ID : 209674299225534934013402529706556268911 (0x9DBDCD17D174CD8C87CFF3DEE4A8216F)
Complete name : D:It.2017.BDRip.AVC.ExKinoRay.mkv
Format : Matroska
Format version : Version 2
File size : 3.30 GiB
Duration : 2 h 14 min
Overall bit rate : 3 504 kb/s
Movie name : It (2017) from ExKinoRay
Encoded date : UTC 2018-01-11 03:05:09
Writing application : mkvmerge v5.6.0 ('Kenya Kane') built on May 27 2012 16:44:04
Writing library : libebml v1.2.3 + libmatroska v1.3.0

Video
ID : 1
Format : AVC
Format/Info : Advanced Video Codec
Format profile : [email protected]
Format settings, CABAC : Yes
Format settings, ReFrames : 12 frames
Codec ID : V_MPEG4/ISO/AVC
Duration : 2 h 14 min
Bit rate : 1 581 kb/s
Width : 1 024 pixels
Height : 426 pixels
Display aspect ratio : 2.40:1
Frame rate mode : Constant
Frame rate : 23.976 (23976/1000) FPS
Color space : YUV
Chroma subsampling : 4:2:0
Bit depth : 8 bits
Scan type : Progressive
Bits/(Pixel*Frame) : 0.151
Stream size : 1.42 GiB (43%)
Title : Enigma
Writing library : x264 core 152 r2851 ba24899
Encoding settings : cabac=1 / ref=12 / deblock=1:-2:-3 / analyse=0x3:0x113 / me=umh / subme=11 / psy=1 / psy_rd=1.00:0.05 / mixed_ref=1 / me_range=32 / chroma_me=1 / trellis=2 / 8x8dct=1 / cqm=0 / deadzone=21,11 / fast_pskip=0 / chroma_qp_offset=-3 / threads=12 / lookahead_threads=3 / sliced_threads=0 / nr=0 / decimate=0 / interlaced=0 / bluray_compat=0 / constrained_intra=0 / bframes=12 / b_pyramid=2 / b_adapt=2 / b_bias=0 / direct=3 / weightb=1 / open_gop=0 / weightp=2 / keyint=240 / keyint_min=23 / scenecut=40 / intra_refresh=0 / rc_lookahead=40 / rc=2pass / mbtree=0 / bitrate=1581 / ratetol=1.0 / qcomp=0.67 / qpmin=0 / qpmax=51 / qpstep=4 / cplxblur=20.0 / qblur=0.5 / vbv_maxrate=50000 / vbv_bufsize=62500 / nal_hrd=none / filler=0 / ip_ratio=1.40 / pb_ratio=1.30 / aq=3:0.90
Language : English
Default : Yes
Forced : No
Color range : Limited
Color primaries : BT.709
Transfer characteristics : BT.709
Matrix coefficients : BT.709

Audio #1
ID : 2
Format : AC-3
Format/Info : Audio Coding 3
Mode extension : CM (complete main)
Format settings, Endianness : Big
Codec ID : A_AC3
Duration : 2 h 14 min
Bit rate mode : Constant
Bit rate : 448 kb/s
Channel(s) : 6 channels
Channel positions : Front: L C R, Side: L R, LFE
Sampling rate : 48.0 kHz
Frame rate : 31.250 FPS (1536 spf)
Compression mode : Lossy
Stream size : 432 MiB (13%)
Title : Dub (Blu Ray)
Language : Russian
Default : Yes
Forced : No

Audio #2
ID : 3
Format : AC-3
Format/Info : Audio Coding 3
Mode extension : CM (complete main)
Format settings, Endianness : Big
Codec ID : A_AC3
Duration : 2 h 14 min
Bit rate mode : Constant
Bit rate : 448 kb/s
Channel(s) : 6 channels
Channel positions : Front: L C R, Side: L R, LFE
Sampling rate : 48.0 kHz
Frame rate : 31.250 FPS (1536 spf)
Compression mode : Lossy
Stream size : 432 MiB (13%)
Title : AVO (Chadov)
Language : Russian
Default : No
Forced : No

Audio #3
ID : 4
Format : AC-3
Format/Info : Audio Coding 3
Mode extension : CM (complete main)
Format settings, Endianness : Big
Codec ID : A_AC3
Duration : 2 h 14 min
Bit rate mode : Constant
Bit rate : 384 kb/s
Channel(s) : 6 channels
Channel positions : Front: L C R, Side: L R, LFE
Sampling rate : 48.0 kHz
Frame rate : 31.250 FPS (1536 spf)
Compression mode : Lossy
Stream size : 370 MiB (11%)
Title : AVO (Дольский)
Language : Russian
Default : No
Forced : No

Audio #4
ID : 5
Format : AC-3
Format/Info : Audio Coding 3
Format profile : Dolby Digital
Mode extension : CM (complete main)
Format settings, Endianness : Big
Codec ID : A_AC3
Duration : 2 h 14 min
Bit rate mode : Constant
Bit rate : 192 kb/s
Channel(s) : 2 channels
Channel positions : Front: L R
Sampling rate : 48.0 kHz
Frame rate : 31.250 FPS (1536 spf)
Compression mode : Lossy
Stream size : 185 MiB (5%)
Language : Ukrainian
Default : No
Forced : No

Audio #5
ID : 6
Format : AC-3
Format/Info : Audio Coding 3
Mode extension : CM (complete main)
Format settings, Endianness : Big
Codec ID : A_AC3
Duration : 2 h 14 min
Bit rate mode : Constant
Bit rate : 448 kb/s
Channel(s) : 6 channels
Channel positions : Front: L C R, Side: L R, LFE
Sampling rate : 48.0 kHz
Frame rate : 31.250 FPS (1536 spf)
Compression mode : Lossy
Stream size : 432 MiB (13%)
Language : English
Default : No
Forced : No

Text #1
ID : 7
Format : UTF-8
Codec ID : S_TEXT/UTF8
Codec ID/Info : UTF-8 Plain Text
Title : Forced
Language : Russian
Default : Yes
Forced : No

Text #2
ID : 8
Format : UTF-8
Codec ID : S_TEXT/UTF8
Codec ID/Info : UTF-8 Plain Text
Title : Full
Language : Russian
Default : No
Forced : No

Text #3
ID : 9
Format : UTF-8
Codec ID : S_TEXT/UTF8
Codec ID/Info : UTF-8 Plain Text
Title : Perevodman
Language : Russian
Default : No
Forced : No

Text #4
ID : 10
Format : UTF-8
Codec ID : S_TEXT/UTF8
Codec ID/Info : UTF-8 Plain Text
Title : Forced
Language : Ukrainian
Default : No
Forced : No

Text #5
ID : 11
Format : UTF-8
Codec ID : S_TEXT/UTF8
Codec ID/Info : UTF-8 Plain Text
Title : Full
Language : English
Default : No
Forced : No

Text #6
ID : 12
Format : UTF-8
Codec ID : S_TEXT/UTF8
Codec ID/Info : UTF-8 Plain Text
Title : SDH
Language : English
Default : No
Forced : No

Menu
00:00:00.000 : en:Chapter 1
00:09:23.646 : en:Chapter 2
00:18:31.860 : en:Chapter 3
00:28:26.162 : en:Chapter 4
00:38:36.981 : en:Chapter 5
00:48:19.438 : en:Chapter 6
00:59:30.775 : en:Chapter 7
01:08:52.795 : en:Chapter 8
01:16:58.822 : en:Chapter 9
01:26:52.957 : en:Chapter 10
01:38:15.306 : en:Chapter 11
01:48:40.972 : en:Chapter 12
02:04:07.898 : en:Chapter 13
02:09:05.654 : en:Chapter 14

Релиз от:

Автор релиза:


Скачать It.2017.BDRip.AVC.ExKinoRay.torrent

просмотры: 0

Post Comment