Аниме

Детектив Конан OVA-8: Архив Судзуки Соноко / Detective Conan: Joshikousei Tantei Suzuki Sonoko no Jikenbo (2008) DVDRip-AVC | L


Детектив Конан: Архив Судзуки Соноко, детектива-старшеклассницы / Meitantei Conan: Joshikousei Tantei Suzuki Sonoko no Jikenbo

Страна: Япония
Год выпуска: 2008
Жанр: приключения, детектив
Тип: OVA
Продолжительность: (1 эп.), 25 мин.
Режиссер: Ямамото Ясуйтиро
Студия: TMS

Описание:
Соноко пишет сценарий к благотворительной постановке, но никак не может придумать конец. Юная команда детективов вместе с Ран берется ей помочь.

Доп. информация:
Релиз GSGroup

Качество: DVDRip
Тип релиза: Без хардсаба
Формат видео: MKV
Автор рипа: APTX4869
Видео: AVC 864×480 23.976 fps 730 Kbps 8 bits
Аудио 1: AC-3 192 Kbps 2 channels 48.0 KHz Язык Русский (в составе контейнера) ; Озвучка: Любительская одноголосая: Persona99
Аудио 2: AC-3 192 Kbps 2 channels 48.0 KHz Язык Японский
Субтитры: ass встроенные Язык субтитров русский ; Перевод: Tachikoma h, Teisson h. Редактура: Roaring_Lion, лирика: AlenFuns

Подробные тех. данные
General
Unique ID : 220916640500503579551895553965812576208 (0xA632FF500ECB8DA3A5F341CE8C8F6FD0)
Complete name : Detective Conan OVA-08 ~Joshikousei Tantei Suzuki Sonoko no Jikenbo~[DVDRIP_X264_AC3].rus.jpn.mkv
Format : Matroska
Format version : Version 2
File size : 211 MiB
Duration : 25mn 39s
Overall bit rate : 1 151 Kbps
Encoded date : UTC 2017-11-07 08:19:07
Writing application : mkvmerge v4.0.0 ('The Stars were mine') built on Jun 6 2010 16:18:42
Writing library : libebml v1.0.0 + libmatroska v1.0.0
Attachements : CALIBRIB.TTF / CAMBRIAB.TTF / trebuc.ttf / trebucbd.ttf / trebucit.ttf

Video
ID : 1
Format : AVC
Format/Info : Advanced Video Codec
Format profile : [email protected]
Format settings, CABAC : Yes
Format settings, ReFrames : 6 frames
Codec ID : V_MPEG4/ISO/AVC
Duration : 25mn 39s
Bit rate : 730 Kbps
Width : 864 pixels
Height : 480 pixels
Display aspect ratio : 16:9
Frame rate mode : Constant
Frame rate : 23.976 fps
Color space : YUV
Chroma subsampling : 4:2:0
Bit depth : 8 bits
Scan type : Progressive
Bits/(Pixel*Frame) : 0.073
Stream size : 136 MiB (65%)
Title : Video
Writing library : x264 core 67 r1139 1024283
Encoding settings : cabac=1 / ref=6 / deblock=1:1:1 / analyse=0x3:0x133 / me=umh / subme=7 / psy_rd=0.0:0.0 / mixed_ref=1 / me_range=16 / chroma_me=1 / trellis=2 / 8x8dct=1 / cqm=0 / deadzone=21,11 / chroma_qp_offset=0 / threads=6 / nr=0 / decimate=1 / mbaff=0 / bframes=4 / b_pyramid=1 / b_adapt=2 / b_bias=0 / direct=3 / wpredb=1 / keyint=250 / keyint_min=25 / scenecut=40 / rc=2pass / bitrate=730 / ratetol=1.0 / qcomp=0.60 / qpmin=10 / qpmax=51 / qpstep=4 / cplxblur=20.0 / qblur=0.5 / ip_ratio=1.40 / pb_ratio=1.30 / aq=1:1.00
Language : Japanese
Default : No
Forced : No

Audio #1
ID : 2
Format : AC-3
Format/Info : Audio Coding 3
Mode extension : CM (complete main)
Format settings, Endianness : Big
Codec ID : A_AC3
Duration : 25mn 39s
Bit rate mode : Constant
Bit rate : 192 Kbps
Channel(s) : 2 channels
Channel positions : Front: L R
Sampling rate : 48.0 KHz
Compression mode : Lossy
Stream size : 35.2 MiB (17%)
Title : Persona99
Language : Russian
Default : Yes
Forced : No

Audio #2
ID : 3
Format : AC-3
Format/Info : Audio Coding 3
Mode extension : CM (complete main)
Format settings, Endianness : Big
Codec ID : A_AC3
Duration : 25mn 39s
Bit rate mode : Constant
Bit rate : 192 Kbps
Channel(s) : 2 channels
Channel positions : Front: L R
Sampling rate : 48.0 KHz
Compression mode : Lossy
Delay relative to video : 8ms
Stream size : 35.2 MiB (17%)
Title : Audio
Language : Japanese
Default : No
Forced : No

Text
ID : 4
Format : ASS
Codec ID : S_TEXT/ASS
Codec ID/Info : Advanced Sub Station Alpha
Compression mode : Lossless
Title : ass
Language : Russian
Default : No
Forced : No

Скриншоты


Скачать Detective_Conan_OVA-08.torrent

просмотры: 2

Post Comment